Anonymous, доброе утро, присоединяйтесь к нам в Telegram!, здесь всегда актуальный адрес сайта, оперативная поддержка и многое другое!

>

5.6

iTunes

7.4

iTunes

5.7

MVO

1

7.7

1 сезон

6.8

iTunes

7.3

1 сезон

13

6.7

1 сезон

8.3

RePack

30

ULTIMATE

pack

9.9

Лицензия

ВАЖНО

ИГРА 18+

pack

7.3

RePack

MK11

7.7

RePack

jed

7.8

RePack

fifa19

8.5

RePack

RDR2

RePack

NEED FOR SPEED™ PAYBACK

4 сезон

9 сезон

Бесстыжие 9 сезон

Все сериалы

все сериалы на PB.wtf

RePack

FAR CRY 5

Anonymous, доброе утро, мы катастрофически не успеваем собрать деньги на оплату серверов, помогите нам пожалуйста 5,10,15р., для нас важна любая помощь . В качестве благодарности мы отключим Вам всю рекламу на сайте (укажите свой ник в строку Ваше имя)!

×
  
Magnet ссылка

Джейсон Борн: Квадрология / Jason Bourne: Quadrilogy [2002-2016, США, Боевик, Триллер, BDRip-HEVC 720p / 60 FPS, Дубляж, Оригинал] pb.wtf

Джейсон Борн: Квадрология через торрент pb.wtf

Раздают: 5 [ 43 KB/s ] Качают: 1 [ 0 KB/s ]
Размер: 13.93 GB | Добавлен: 3 года 8 мес. назад | Торрент скачан:286 раз
Смотреть онлайн Джейсон Борн: Квадрология | Скачать    Ребята, помогите собрать деньги на оплату серверов!!!

06-02-2018 11:44 Джейсон Борн: Квадрология Скачать торрент  

Данный релиз сделан на основе 16-го обновления с применением технологии HEVC.Учтите что не каждое медиаустройство или плеер способен воспроизводить данный формат.Обязательно проверьте сэмпл на своем оборудовании перед скачиванием релиза.
Идентификация Борна / The Bourne Identity
Год выпуска: 2002
Страна: США, Германия, Чехия
Жанр: Боевик, триллер, криминал, детектив, экранизация
Продолжительность: 01:58:17
Перевод: Дубляж, Оригинал
Субтитры: Русские (Форс, полные), Английские (форс, полные,SHD,SHD-Colored)

Режиссер: Даг Лайман

rating

В ролях: Мэтт Дэймон, Франка Потенте, Крис Купер, Клайв Оуэн, Брайан Кокс, Адевале Акиннуойе-Агбадже, Гэбриел Манн, Уолтон Гоггинс, Джош Хэмилтон, Джулия Стайлз, Орсо Мария Гуэррини, Тим Даттон, Денис Браччини, Никки Нод, Дэвид Селбёрг, Деметри Горицас, Рассел Леви, Энтони Грин, Юбер Сен-Макари, Дэвид Бамбер

Описание: Команда итальянского рыболовецкого судна находит в водах Средиземного моря тело мужчины. У него два пулевых ранения в спине и имплантированный в бедро микрофильм, помеченный номером швейцарского банка. Когда незнакомец приходит в себя, оказывается, что он не помнит кто он, и что с ним случилось, однако он может говорить на нескольких языках и обладает другими необычными способностями. Получив в Цюрихе деньги с указанного банковского счета, он узнает свое имя Джейсон Борн. Но настоящее это его имя или нет? Пытаясь восстановить свое прошлое, он находит свой адрес в Париже, но вместе с этим понимает, что отслеживается убийцей. Борн уговаривает немецкую студентку Мэри отвезти его в Париж, чтобы выяснить все о своем прошлом и понять, кто хочет его убить...

Качество: BDRip 720p / 60 FPS by Tiberiumsun69
Формат: MKV
Видео кодек: H.265
Аудио кодек: AC3
Видео: HEVC, 1280x544 (2.35:1), 3000 kbps, 59.940 fps, 0.072 bpp
Аудио#1: AC3 / 5.1 / 48 kHz / 640 kbps / 16 bit | DUB - Blu-ray CEE
Аудио#2: AC3 / 5.1 / 48 kHz / 640 kbps / 16 bit | Original
Encoding video to: F:\Temp\0011.265
x265 10-bit depth 3000kbps 1280x544 59.940fps (425522 frames)

avs4x26x.exe: -L x265_10b.exe "F:\Temp\0011.avs" --bitrate 3000 --preset medium --profile main10 --level-idc 4.0 --sar 1:1 --output "F:\Temp\0011.265"

yuv [info]: 1280x544 fps 60000/1001 i420p8 sar 1:1 unknown frame count
raw [info]: output file: F:\Temp\0011.265
x265 [info]: HEVC encoder version 2.6+37-1949157705ce
x265 [info]: build info [Windows][MSVC 1912][64 bit] 10bit
x265 [info]: using cpu capabilities: MMX2 SSE2Fast LZCNT SSSE3 SSE4.2 AVX FMA3 BMI2 AVX2
x265 [info]: Main 10 profile, Level-4 (Main tier)
x265 [info]: Thread pool created using 8 threads
x265 [info]: Slices : 1
x265 [info]: frame threads / pool features : 3 / wpp(9 rows)
x265 [warning]: Source height < 720p; disabling lookahead-slices
x265 [info]: Coding QT: max CU size, min CU size : 64 / 8
x265 [info]: Residual QT: max TU size, max depth : 32 / 1 inter / 1 intra
x265 [info]: ME / range / subpel / merge : hex / 57 / 2 / 2
x265 [info]: Keyframe min / max / scenecut / bias: 25 / 250 / 40 / 5.00
x265 [info]: Lookahead / bframes / badapt : 20 / 4 / 2
x265 [info]: b-pyramid / weightp / weightb : 1 / 1 / 0
x265 [info]: References / ref-limit cu / depth : 3 / on / on
x265 [info]: AQ: mode / str / qg-size / cu-tree : 1 / 1.0 / 32 / 1
x265 [info]: Rate Control / qCompress : ABR-3000 kbps / 0.60
x265 [info]: tools: rd=3 psy-rd=2.00 rskip signhide tmvp strong-intra-smoothing
x265 [info]: tools: deblock sao

x265 [info]: frame I: 2653, Avg QP:15.87 kb/s: 18401.70
x265 [info]: frame P: 98147, Avg QP:16.19 kb/s: 8865.58
x265 [info]: frame B: 324722, Avg QP:21.14 kb/s: 1100.33
x265 [info]: Weighted P-Frames: Y:5.4% UV:3.7%
x265 [info]: consecutive B-frames: 3.4% 2.0% 6.5% 45.2% 42.9%

encoded 425522 frames in 10727.01s (39.67 fps), 2999.26 kb/s, Avg QP:19.96

avs [info]: AviSynth 2.60, build:Feb 20 2015 [03:16:45]
avs [info]: Video colorspace: YV12
avs [info]: Video resolution: 1280x544
avs [info]: Video framerate: 60000/1001
avs [info]: Video framecount: 425522
avs4x26x [info]: "x265_10b.exe" - --bitrate 3000 --preset medium --profile main10 --level-idc 4.0 --sar 1:1 --output F:\Temp\0011.265 --frames 425522 --fps 60000/1001 --input-res 1280x544 --input-csp i420
General
Unique ID : 254306507891829802018711882422827483737 (0xBF51A6E04E6924671296200E81C20259)
Complete name : F:\Торренты\Джейсон Борн BDRip-HEVC 720p 60fps\01. Идентификация Борна.mkv
Format : Matroska
Format version : Version 4 / Version 2
File size : 3.54 GiB
Duration : 1 h 58 min
Overall bit rate : 4 285 kb/s
Movie name : The Bourne Identity (2002) by Tiberiumsun69
Encoded date : UTC 2018-02-06 09:09:47
Writing application : mkvmerge v20.0.0 ('I Am The Sun') 64-bit
Writing library : libebml v1.3.5 + libmatroska v1.4.8

Video
ID : 1
Format : HEVC
Format/Info : High Efficiency Video Coding
Format profile : Main 10@L4@Main
Codec ID : V_MPEGH/ISO/HEVC
Duration : 1 h 58 min
Bit rate : 3 001 kb/s
Width : 1 280 pixels
Height : 544 pixels
Display aspect ratio : 2.35:1
Frame rate mode : Constant
Frame rate : 59.940 (59940/1000) FPS
Original frame rate : 59.940 (60000/1001) FPS
Color space : YUV
Chroma subsampling : 4:2:0
Bit depth : 10 bits
Bits/(Pixel*Frame) : 0.072
Stream size : 2.48 GiB (70%)
Default : Yes
Forced : No

Audio #1
ID : 2
Format : AC-3
Format/Info : Audio Coding 3
Codec ID : A_AC3
Duration : 1 h 58 min
Bit rate mode : Constant
Bit rate : 640 kb/s
Channel(s) : 6 channels
Channel positions : Front: L C R, Side: L R, LFE
Sampling rate : 48.0 kHz
Frame rate : 31.250 FPS (1536 SPF)
Bit depth : 16 bits
Compression mode : Lossy
Stream size : 541 MiB (15%)
Title : Дубляж
Language : Russian
Service kind : Complete Main
Default : Yes
Forced : No

Audio #2
ID : 3
Format : AC-3
Format/Info : Audio Coding 3
Codec ID : A_AC3
Duration : 1 h 58 min
Bit rate mode : Constant
Bit rate : 640 kb/s
Channel(s) : 6 channels
Channel positions : Front: L C R, Side: L R, LFE
Sampling rate : 48.0 kHz
Frame rate : 31.250 FPS (1536 SPF)
Bit depth : 16 bits
Compression mode : Lossy
Stream size : 541 MiB (15%)
Title : Оригинал
Language : English
Service kind : Complete Main
Default : No
Forced : No

Text #1
ID : 4
Format : UTF-8
Codec ID : S_TEXT/UTF8
Codec ID/Info : UTF-8 Plain Text
Duration : 1 h 50 min
Bit rate : 67 b/s
Count of elements : 988
Stream size : 54.8 KiB (0%)
Title : Full
Language : Russian
Default : No
Forced : No

Text #2
ID : 5
Format : UTF-8
Codec ID : S_TEXT/UTF8
Codec ID/Info : UTF-8 Plain Text
Duration : 1 h 14 min
Bit rate : 5 b/s
Count of elements : 60
Stream size : 2.77 KiB (0%)
Title : Forced
Language : Russian
Default : Yes
Forced : No

Text #3
ID : 6
Format : UTF-8
Codec ID : S_TEXT/UTF8
Codec ID/Info : UTF-8 Plain Text
Duration : 1 h 46 min
Bit rate : 41 b/s
Count of elements : 1018
Stream size : 32.7 KiB (0%)
Title : Full
Language : English
Default : No
Forced : No

Text #4
ID : 7
Format : UTF-8
Codec ID : S_TEXT/UTF8
Codec ID/Info : UTF-8 Plain Text
Duration : 1 h 14 min
Bit rate : 3 b/s
Count of elements : 64
Stream size : 1.89 KiB (0%)
Title : Forced
Language : English
Default : No
Forced : No

Text #5
ID : 8
Format : UTF-8
Codec ID : S_TEXT/UTF8
Codec ID/Info : UTF-8 Plain Text
Duration : 1 h 50 min
Bit rate : 43 b/s
Count of elements : 1130
Stream size : 35.2 KiB (0%)
Title : SDH
Language : English
Default : No
Forced : No

Text #6
ID : 9
Format : UTF-8
Codec ID : S_TEXT/UTF8
Codec ID/Info : UTF-8 Plain Text
Duration : 1 h 50 min
Bit rate : 49 b/s
Count of elements : 1130
Stream size : 40.0 KiB (0%)
Title : SDH Colored
Language : English
Default : No
Forced : No

Menu
00:00:00.000 : :Chapter 01
00:05:00.000 : :Chapter 02
00:10:00.000 : :Chapter 03
00:15:00.000 : :Chapter 04
00:20:00.000 : :Chapter 05
00:25:00.000 : :Chapter 06
00:30:00.000 : :Chapter 07
00:35:00.000 : :Chapter 08
00:40:00.000 : :Chapter 09
00:45:00.000 : :Chapter 10
00:50:00.000 : :Chapter 11
00:55:00.000 : :Chapter 12
01:00:00.000 : :Chapter 13
01:05:00.000 : :Chapter 14
01:10:00.000 : :Chapter 15
01:15:00.000 : :Chapter 16
01:20:00.000 : :Chapter 17
01:25:00.000 : :Chapter 18
01:30:00.000 : :Chapter 19
01:35:00.000 : :Chapter 20
01:40:00.000 : :Chapter 21
01:45:00.000 : :Chapter 22
01:50:00.000 : :Chapter 23
01:55:00.000 : :Chapter 24
Превосходство Борна / The Bourne Supremacy
Год выпуска: 2004
Страна: США, Германия
Жанр: Боевик, триллер, криминал
Продолжительность: 01:48:31
Перевод: Дубляж, Оригинал
Субтитры: Русские (Форс, полные), Английские (полные)

Режиссер: Пол Гринграсс

rating

В ролях: Мэтт Дэймон, Карл Урбан, Брайан Кокс, Джоан Аллен, Франка Потенте, Джулия Стайлз, Гэбриел Манн, Мартон Чокаш, Том Гэллоп, Джон Бедфорд Ллойд, Этан Сэндлер, Мишель Монахэн, Карел Роден, Томас Арана, Оксана Акиньшина, Евгений Ситохин, Марина Вайс-Бургаслиева, Тим Гриффин, Шон Смит, Максим Ковалевский, Патрик Краули, Джон Коллин, Сэм Браун, Шэйн Синутко, Барнеби Смит, Доминик Шиу, Ваня Муес, Алексей Шмаринов, Стефан Вольф-Шёнбург

Описание: Суперагент ЦРУ Джейсон Борн вновь оказывается подставленным и вынужден помимо возложенной на него задачи государственного значения спасать себя, а заодно и других небезразличных ему людей. В процессе выполнения миссии судьба заносит Борна в Россию, где его ждет множество характерных для страны, но непривычных западному человеку сюрпризов.

Качество: BDRip 720p / 60 FPS by Tiberiumsun69
Формат: MKV
Видео кодек: H.265
Аудио кодек: AC3
Видео: HEVC, 1280x544 (2.35:1), 3000 kbps, 59.940 fps, 0.072 bpp
Аудио#1: AC3 / 5.1 / 48 kHz / 640 kbps / 16 bit | DUB - Blu-ray CEE
Аудио#2: AC3 / 5.1 / 48 kHz / 640 kbps / 16 bit | Original
Encoding video to: F:\Temp\0006.265
x265 10-bit depth 3000kbps 1280x544 59.905fps (390066 frames)

avs4x26x.exe: -L x265_10b.exe "F:\Temp\0006.avs" --bitrate 3000 --preset medium --profile main10 --level-idc 4.0 --sar 1:1 --output "F:\Temp\0006.265"

yuv [info]: 1280x544 fps 10000000/166931 i420p8 sar 1:1 unknown frame count
raw [info]: output file: F:\Temp\0006.265
x265 [info]: HEVC encoder version 2.6+37-1949157705ce
x265 [info]: build info [Windows][MSVC 1912][64 bit] 10bit
x265 [info]: using cpu capabilities: MMX2 SSE2Fast LZCNT SSSE3 SSE4.2 AVX FMA3 BMI2 AVX2
x265 [info]: Main 10 profile, Level-4 (Main tier)
x265 [info]: Thread pool created using 8 threads
x265 [info]: Slices : 1
x265 [info]: frame threads / pool features : 3 / wpp(9 rows)
x265 [warning]: Source height < 720p; disabling lookahead-slices
x265 [info]: Coding QT: max CU size, min CU size : 64 / 8
x265 [info]: Residual QT: max TU size, max depth : 32 / 1 inter / 1 intra
x265 [info]: ME / range / subpel / merge : hex / 57 / 2 / 2
x265 [info]: Keyframe min / max / scenecut / bias: 25 / 250 / 40 / 5.00
x265 [info]: Lookahead / bframes / badapt : 20 / 4 / 2
x265 [info]: b-pyramid / weightp / weightb : 1 / 1 / 0
x265 [info]: References / ref-limit cu / depth : 3 / on / on
x265 [info]: AQ: mode / str / qg-size / cu-tree : 1 / 1.0 / 32 / 1
x265 [info]: Rate Control / qCompress : ABR-3000 kbps / 0.60
x265 [info]: tools: rd=3 psy-rd=2.00 rskip signhide tmvp strong-intra-smoothing
x265 [info]: tools: deblock sao

x265 [info]: frame I: 3220, Avg QP:17.15 kb/s: 14216.75
x265 [info]: frame P: 94736, Avg QP:16.99 kb/s: 7976.99
x265 [info]: frame B: 292110, Avg QP:21.78 kb/s: 1272.97
x265 [info]: Weighted P-Frames: Y:5.1% UV:4.0%
x265 [info]: consecutive B-frames: 5.9% 4.3% 13.3% 38.7% 37.8%

encoded 390066 frames in 10682.45s (36.51 fps), 3008.04 kb/s, Avg QP:20.57

avs [info]: AviSynth 2.60, build:Feb 20 2015 [03:16:45]
avs [info]: Video colorspace: YV12
avs [info]: Video resolution: 1280x544
avs [info]: Video framerate: 10000000/166931
avs [info]: Video framecount: 390066
avs4x26x [info]: "x265_10b.exe" - --bitrate 3000 --preset medium --profile main10 --level-idc 4.0 --sar 1:1 --output F:\Temp\0006.265 --frames 390066 --fps 10000000/166931 --input-res 1280x544 --input-csp i420
General
Unique ID : 208103833642447250039363748666963634565 (0x9C8F572964F0E27CC5EC4500595FA985)
Complete name : F:\Торренты\Джейсон Борн BDRip-HEVC 720p 60fps\02. Превосходство Борна.mkv
Format : Matroska
Format version : Version 4 / Version 2
File size : 3.26 GiB
Duration : 1 h 48 min
Overall bit rate : 4 294 kb/s
Movie name : The Bourne Supremacy (2004) by Tiberiumsun69
Encoded date : UTC 2018-02-06 09:17:10
Writing application : mkvmerge v20.0.0 ('I Am The Sun') 64-bit
Writing library : libebml v1.3.5 + libmatroska v1.4.8

Video
ID : 1
Format : HEVC
Format/Info : High Efficiency Video Coding
Format profile : Main 10@L4@Main
Codec ID : V_MPEGH/ISO/HEVC
Duration : 1 h 48 min
Bit rate : 3 010 kb/s
Width : 1 280 pixels
Height : 544 pixels
Display aspect ratio : 2.35:1
Frame rate mode : Constant
Frame rate : 59.940 (59940/1000) FPS
Color space : YUV
Chroma subsampling : 4:2:0
Bit depth : 10 bits
Bits/(Pixel*Frame) : 0.072
Stream size : 2.28 GiB (70%)
Default : Yes
Forced : No

Audio #1
ID : 2
Format : AC-3
Format/Info : Audio Coding 3
Codec ID : A_AC3
Duration : 1 h 48 min
Bit rate mode : Constant
Bit rate : 640 kb/s
Channel(s) : 6 channels
Channel positions : Front: L C R, Side: L R, LFE
Sampling rate : 48.0 kHz
Frame rate : 31.250 FPS (1536 SPF)
Bit depth : 16 bits
Compression mode : Lossy
Stream size : 497 MiB (15%)
Title : Дубляж
Language : Russian
Service kind : Complete Main
Default : Yes
Forced : No

Audio #2
ID : 3
Format : AC-3
Format/Info : Audio Coding 3
Codec ID : A_AC3
Duration : 1 h 48 min
Bit rate mode : Constant
Bit rate : 640 kb/s
Channel(s) : 6 channels
Channel positions : Front: L C R, Side: L R, LFE
Sampling rate : 48.0 kHz
Frame rate : 31.250 FPS (1536 SPF)
Bit depth : 16 bits
Compression mode : Lossy
Stream size : 497 MiB (15%)
Title : Оригинал
Language : English
Service kind : Complete Main
Default : No
Forced : No

Text #1
ID : 4
Format : UTF-8
Codec ID : S_TEXT/UTF8
Codec ID/Info : UTF-8 Plain Text
Duration : 1 h 38 min
Bit rate : 2 b/s
Count of elements : 44
Stream size : 2.08 KiB (0%)
Title : FORCED
Language : Russian
Default : No
Forced : No

Text #2
ID : 5
Format : UTF-8
Codec ID : S_TEXT/UTF8
Codec ID/Info : UTF-8 Plain Text
Duration : 1 h 41 min
Bit rate : 53 b/s
Count of elements : 636
Stream size : 39.3 KiB (0%)
Title : full
Language : Russian
Default : Yes
Forced : Yes

Text #3
ID : 6
Format : UTF-8
Codec ID : S_TEXT/UTF8
Codec ID/Info : UTF-8 Plain Text
Duration : 1 h 40 min
Bit rate : 36 b/s
Count of elements : 814
Stream size : 27.2 KiB (0%)
Title : Full
Language : English
Default : No
Forced : No

Menu
00:00:00.000 : en:Chapter 1
00:05:00.000 : en:Chapter 2
00:10:00.000 : en:Chapter 3
00:15:00.000 : en:Chapter 4
00:20:00.000 : en:Chapter 5
00:25:00.000 : en:Chapter 6
00:30:00.000 : en:Chapter 7
00:35:00.000 : en:Chapter 8
00:40:00.000 : en:Chapter 9
00:45:00.000 : en:Chapter 10
00:50:00.000 : en:Chapter 11
00:55:00.000 : en:Chapter 12
01:00:00.000 : en:Chapter 13
01:05:00.000 : en:Chapter 14
01:10:00.000 : en:Chapter 15
01:15:00.000 : en:Chapter 16
01:20:00.000 : en:Chapter 17
01:25:00.000 : en:Chapter 18
01:30:00.000 : en:Chapter 19
01:35:00.000 : en:Chapter 20
01:40:00.000 : en:Chapter 21
01:45:00.000 : en:Chapter 22
Ультиматум Борна / The Bourne Ultimatum
Год выпуска: 2007
Страна: США, Германия
Жанр: Боевик, триллер, криминал
Продолжительность: 01:55:19
Перевод: Дубляж, Оригинал
Субтитры: Русские (полные), Английские (полные)

Режиссер: Пол Гринграсс

rating

В ролях: Мэтт Дэймон, Джулия Стайлз, Дэвид Стрэтэйрн, Скотт Гленн, Пэдди Консидайн, Эдгар Рамирес, Альберт Финни, Джоан Аллен, Том Гэллоп, Кори Джонсон, Даниэль Брюль, Джои Анса, Колин Стинтон, Дэн Фреденбёрг, Люси Лиманн, Брайан Ринтс, Арки Аломар, Джон Роберсон, Русс Хуардс, Марк Базелей, Синед О’Киффи, Чуки Венис, Скотт Эдкинс, Бранко Томович, Лоуренс Посса, Тревор Ст. Джон, Альберт Джонс, Джеффри Ли Гибсон, Уриель Эмиль Поллак, Омар Эрнандес, Уильям Х. Барнс, Майкл Уилдман, Кай Мартин

Описание: Он хотел одного – исчезнуть. Вместо этого за Борном теперь охотятся люди, которые сделали его таким, какой он есть. Он потерял память и человека, которого он любил. Но его не удается сдержать даже новому поколению профессиональных убийц. У него только одна цель: вернуться к началу и узнать кем он был, Джейсон Борн. Он мечется от Москвы к Парижу, через Мадрид и Лондон в Танжер и Нью-Йорк, пытаясь раскрыть последние загадки своего прошлого, в то время, как правительственные агенты и Интерпол пытаются помешать ему восстановить всю картину до конца.

Качество: BDRip 720p / 60 FPS by Tiberiumsun69
Формат: MKV
Видео кодек: H.265
Аудио кодек: AC3
Видео: HEVC, 1280x536 (2.40:1), 3000 kbps, 59.940 fps, 0.073 bpp
Аудио#1: AC3 / 5.1 / 48 kHz / 640 kbps / 16 bit | DUB - Blu-ray CEE
Аудио#2: AC3 / 5.1 / 48 kHz / 640 kbps / 16 bit | Original
Encoding video to: F:\Temp\0003.265
x265 10-bit depth 3000kbps 1280x536 59.940fps (414731 frames)

avs4x26x.exe: -L x265_10b.exe "F:\Temp\0003.avs" --bitrate 3000 --preset medium --profile main10 --level-idc 4.0 --sar 1:1 --output "F:\Temp\0003.265"

yuv [info]: 1280x536 fps 60000/1001 i420p8 sar 1:1 unknown frame count
raw [info]: output file: F:\Temp\0003.265
x265 [info]: HEVC encoder version 2.6+37-1949157705ce
x265 [info]: build info [Windows][MSVC 1912][64 bit] 10bit
x265 [info]: using cpu capabilities: MMX2 SSE2Fast LZCNT SSSE3 SSE4.2 AVX FMA3 BMI2 AVX2
x265 [info]: Main 10 profile, Level-4 (Main tier)
x265 [info]: Thread pool created using 8 threads
x265 [info]: Slices : 1
x265 [info]: frame threads / pool features : 3 / wpp(9 rows)
x265 [warning]: Source height < 720p; disabling lookahead-slices
x265 [info]: Coding QT: max CU size, min CU size : 64 / 8
x265 [info]: Residual QT: max TU size, max depth : 32 / 1 inter / 1 intra
x265 [info]: ME / range / subpel / merge : hex / 57 / 2 / 2
x265 [info]: Keyframe min / max / scenecut / bias: 25 / 250 / 40 / 5.00
x265 [info]: Lookahead / bframes / badapt : 20 / 4 / 2
x265 [info]: b-pyramid / weightp / weightb : 1 / 1 / 0
x265 [info]: References / ref-limit cu / depth : 3 / on / on
x265 [info]: AQ: mode / str / qg-size / cu-tree : 1 / 1.0 / 32 / 1
x265 [info]: Rate Control / qCompress : ABR-3000 kbps / 0.60
x265 [info]: tools: rd=3 psy-rd=2.00 rskip signhide tmvp strong-intra-smoothing
x265 [info]: tools: deblock sao

x265 [info]: frame I: 3679, Avg QP:17.70 kb/s: 13818.34
x265 [info]: frame P: 99735, Avg QP:17.35 kb/s: 7896.22
x265 [info]: frame B: 311317, Avg QP:22.08 kb/s: 1292.10
x265 [info]: Weighted P-Frames: Y:5.8% UV:4.4%
x265 [info]: consecutive B-frames: 6.5% 4.4% 8.1% 43.5% 37.5%

encoded 414731 frames in 11318.05s (36.64 fps), 2991.39 kb/s, Avg QP:20.90

avs [info]: AviSynth 2.60, build:Feb 20 2015 [03:16:45]
avs [info]: Video colorspace: YV12
avs [info]: Video resolution: 1280x536
avs [info]: Video framerate: 60000/1001
avs [info]: Video framecount: 414731
avs4x26x [info]: "x265_10b.exe" - --bitrate 3000 --preset medium --profile main10 --level-idc 4.0 --sar 1:1 --output F:\Temp\0003.265 --frames 414731 --fps 60000/1001 --input-res 1280x536 --input-csp i420
General
Unique ID : 263171899898343758389938483944986298578 (0xC5FD1072EBB0125DCA926FD0C804C8D2)
Complete name : F:\Торренты\Джейсон Борн BDRip-HEVC 720p 60fps\03. Ультиматум Борна.mkv
Format : Matroska
Format version : Version 4 / Version 2
File size : 3.45 GiB
Duration : 1 h 55 min
Overall bit rate : 4 277 kb/s
Movie name : The Bourne Ultimatum (2007) by Tiberiumsun69
Encoded date : UTC 2018-02-06 09:36:28
Writing application : mkvmerge v20.0.0 ('I Am The Sun') 64-bit
Writing library : libebml v1.3.5 + libmatroska v1.4.8

Video
ID : 1
Format : HEVC
Format/Info : High Efficiency Video Coding
Format profile : Main 10@L4@Main
Codec ID : V_MPEGH/ISO/HEVC
Duration : 1 h 55 min
Bit rate : 2 993 kb/s
Width : 1 280 pixels
Height : 536 pixels
Display aspect ratio : 2.40:1
Frame rate mode : Constant
Frame rate : 59.940 (59940/1000) FPS
Original frame rate : 59.940 (60000/1001) FPS
Color space : YUV
Chroma subsampling : 4:2:0
Bit depth : 10 bits
Bits/(Pixel*Frame) : 0.073
Stream size : 2.41 GiB (70%)
Default : Yes
Forced : No

Audio #1
ID : 2
Format : AC-3
Format/Info : Audio Coding 3
Codec ID : A_AC3
Duration : 1 h 55 min
Bit rate mode : Constant
Bit rate : 640 kb/s
Channel(s) : 6 channels
Channel positions : Front: L C R, Side: L R, LFE
Sampling rate : 48.0 kHz
Frame rate : 31.250 FPS (1536 SPF)
Bit depth : 16 bits
Compression mode : Lossy
Stream size : 528 MiB (15%)
Title : Дубляж
Language : Russian
Service kind : Complete Main
Default : Yes
Forced : No

Audio #2
ID : 3
Format : AC-3
Format/Info : Audio Coding 3
Codec ID : A_AC3
Duration : 1 h 55 min
Bit rate mode : Constant
Bit rate : 640 kb/s
Channel(s) : 6 channels
Channel positions : Front: L C R, Side: L R, LFE
Sampling rate : 48.0 kHz
Frame rate : 31.250 FPS (1536 SPF)
Bit depth : 16 bits
Compression mode : Lossy
Stream size : 528 MiB (15%)
Title : Оригинал
Language : English
Service kind : Complete Main
Default : No
Forced : No

Text #1
ID : 4
Format : UTF-8
Codec ID : S_TEXT/UTF8
Codec ID/Info : UTF-8 Plain Text
Duration : 1 h 43 min
Bit rate : 65 b/s
Count of elements : 781
Stream size : 49.3 KiB (0%)
Title : Full
Language : Russian
Default : Yes
Forced : No

Text #2
ID : 5
Format : UTF-8
Codec ID : S_TEXT/UTF8
Codec ID/Info : UTF-8 Plain Text
Duration : 1 h 45 min
Bit rate : 43 b/s
Count of elements : 1054
Stream size : 33.6 KiB (0%)
Title : Full
Language : English
Default : No
Forced : No

Menu
00:00:00.000 : en:Chapter 1
00:05:00.000 : en:Chapter 2
00:10:00.000 : en:Chapter 3
00:15:00.000 : en:Chapter 4
00:20:00.000 : en:Chapter 5
00:25:00.000 : en:Chapter 6
00:30:00.000 : en:Chapter 7
00:35:00.000 : en:Chapter 8
00:40:00.000 : en:Chapter 9
00:45:00.000 : en:Chapter 10
00:50:00.000 : en:Chapter 11
00:55:00.000 : en:Chapter 12
01:00:00.000 : en:Chapter 13
01:05:00.000 : en:Chapter 14
01:10:00.000 : en:Chapter 15
01:15:00.000 : en:Chapter 16
01:20:00.000 : en:Chapter 17
01:25:00.000 : en:Chapter 18
01:30:00.000 : en:Chapter 19
01:35:00.000 : en:Chapter 20
01:40:00.000 : en:Chapter 21
01:45:00.000 : en:Chapter 22
01:50:00.000 : en:Chapter 23
01:55:00.000 : en:Chapter 24
Джейсон Борн / Jason Bourne
Год выпуска: 2016
Страна: Великобритания, Китай, США
Жанр: Боевик, триллер
Продолжительность: 02:03:11
Перевод: Дубляж, Оригинал
Субтитры: Русские (Форс, полные), Английские (полные, SHD, SHD-Colored)

Режиссер: Пол Гринграсс

rating

В ролях: Мэтт Дэймон, Алисия Викандер, Томми Ли Джонс, Венсан Кассель, Джулия Стайлз, Риз Ахмед, Ато Эссонда, Скотт Шеперд, Билл Кэмп, Винцец Кифер

Описание: Хакерская атака серверов ЦРУ поднимает на ноги весь Лэнгли. Объект взлома-архивы "Тредстоуна", проекта по созданию спецагентов, одним из которых был Джейсон Борн.ЦРУ берет след злоумышленницы Никки Парсонс, которая должна привести их к пропавшему Борну. И если амбициозный зам Хизер Ли еще уповает на возврат Джейсона к службе, то планы директора Дьюи далеко не так оптимистичны. К тому же начинает рваться с поводка Калур, гений, в чьей миллиардной соцсети ЦРУ видит источник для сбора данных. Джейсону Борну вновь придется выйти из тени и померяться силами с давними врагами.

Качество: BDRip 720p / 60 FPS by Tiberiumsun69
Формат: MKV
Видео кодек: H.265
Аудио кодек: AC3
Видео: HEVC, 1280x536 (2.40:1), 3000 kbps, 59.940 fps, 0.073 bpp
Аудио#1: AC3 / 5.1 / 48 kHz / 640 kbps / 16 bit | DUB - Blu-ray CEE
Аудио#2: AC3 / 5.1 / 48 kHz / 640 kbps / 16 bit | Original
Encoding video to: F:\Temp\0008.265
x265 10-bit depth 3000kbps 1280x536 59.903fps (442761 frames)

avs4x26x.exe: -L x265_10b.exe "F:\Temp\0008.avs" --bitrate 3000 --preset medium --profile main10 --level-idc 4.0 --sar 1:1 --output "F:\Temp\0008.265"

yuv [info]: 1280x536 fps 10000000/166937 i420p8 sar 1:1 unknown frame count
raw [info]: output file: F:\Temp\0008.265
x265 [info]: HEVC encoder version 2.6+37-1949157705ce
x265 [info]: build info [Windows][MSVC 1912][64 bit] 10bit
x265 [info]: using cpu capabilities: MMX2 SSE2Fast LZCNT SSSE3 SSE4.2 AVX FMA3 BMI2 AVX2
x265 [info]: Main 10 profile, Level-4 (Main tier)
x265 [info]: Thread pool created using 8 threads
x265 [info]: Slices : 1
x265 [info]: frame threads / pool features : 3 / wpp(9 rows)
x265 [warning]: Source height < 720p; disabling lookahead-slices
x265 [info]: Coding QT: max CU size, min CU size : 64 / 8
x265 [info]: Residual QT: max TU size, max depth : 32 / 1 inter / 1 intra
x265 [info]: ME / range / subpel / merge : hex / 57 / 2 / 2
x265 [info]: Keyframe min / max / scenecut / bias: 25 / 250 / 40 / 5.00
x265 [info]: Lookahead / bframes / badapt : 20 / 4 / 2
x265 [info]: b-pyramid / weightp / weightb : 1 / 1 / 0
x265 [info]: References / ref-limit cu / depth : 3 / on / on
x265 [info]: AQ: mode / str / qg-size / cu-tree : 1 / 1.0 / 32 / 1
x265 [info]: Rate Control / qCompress : ABR-3000 kbps / 0.60
x265 [info]: tools: rd=3 psy-rd=2.00 rskip signhide tmvp strong-intra-smoothing
x265 [info]: tools: deblock sao

x265 [info]: frame I: 3558, Avg QP:16.69 kb/s: 14308.51
x265 [info]: frame P: 105912, Avg QP:16.51 kb/s: 7847.88
x265 [info]: frame B: 333291, Avg QP:21.24 kb/s: 1330.39
x265 [info]: Weighted P-Frames: Y:6.7% UV:4.9%
x265 [info]: consecutive B-frames: 6.6% 3.3% 7.0% 45.5% 37.7%

encoded 442761 frames in 12267.84s (36.09 fps), 2993.72 kb/s, Avg QP:20.07

avs [info]: AviSynth 2.60, build:Feb 20 2015 [03:16:45]
avs [info]: Video colorspace: YV12
avs [info]: Video resolution: 1280x536
avs [info]: Video framerate: 10000000/166937
avs [info]: Video framecount: 442761
avs4x26x [info]: "x265_10b.exe" - --bitrate 3000 --preset medium --profile main10 --level-idc 4.0 --sar 1:1 --output F:\Temp\0008.265 --frames 442761 --fps 10000000/166937 --input-res 1280x536 --input-csp i420
General
Unique ID : 14943243512575179645566019092344557231 (0xB3DF6C9AB14FE7770E960FA5F1D4EAF)
Complete name : F:\Торренты\Джейсон Борн BDRip-HEVC 720p 60fps\04. Джейсон Борн.mkv
Format : Matroska
Format version : Version 4 / Version 2
File size : 3.68 GiB
Duration : 2 h 3 min
Overall bit rate : 4 280 kb/s
Movie name : Jason Bourne (2016) by Tiberiumsun69
Encoded date : UTC 2018-02-06 09:49:46
Writing application : mkvmerge v20.0.0 ('I Am The Sun') 64-bit
Writing library : libebml v1.3.5 + libmatroska v1.4.8

Video
ID : 1
Format : HEVC
Format/Info : High Efficiency Video Coding
Format profile : Main 10@L4@Main
Codec ID : V_MPEGH/ISO/HEVC
Duration : 2 h 3 min
Bit rate : 2 996 kb/s
Width : 1 280 pixels
Height : 536 pixels
Display aspect ratio : 2.40:1
Frame rate mode : Constant
Frame rate : 59.940 (59940/1000) FPS
Color space : YUV
Chroma subsampling : 4:2:0
Bit depth : 10 bits
Bits/(Pixel*Frame) : 0.073
Stream size : 2.58 GiB (70%)
Default : Yes
Forced : No

Audio #1
ID : 2
Format : AC-3
Format/Info : Audio Coding 3
Codec ID : A_AC3
Duration : 2 h 3 min
Bit rate mode : Constant
Bit rate : 640 kb/s
Channel(s) : 6 channels
Channel positions : Front: L C R, Side: L R, LFE
Sampling rate : 48.0 kHz
Frame rate : 31.250 FPS (1536 SPF)
Bit depth : 16 bits
Compression mode : Lossy
Stream size : 564 MiB (15%)
Title : Дубляж
Language : Russian
Service kind : Complete Main
Default : Yes
Forced : No

Audio #2
ID : 3
Format : AC-3
Format/Info : Audio Coding 3
Codec ID : A_AC3
Duration : 2 h 3 min
Bit rate mode : Constant
Bit rate : 640 kb/s
Channel(s) : 6 channels
Channel positions : Front: L C R, Side: L R, LFE
Sampling rate : 48.0 kHz
Frame rate : 31.250 FPS (1536 SPF)
Bit depth : 16 bits
Compression mode : Lossy
Stream size : 564 MiB (15%)
Title : Оригинал
Language : English
Service kind : Complete Main
Default : No
Forced : No

Text #1
ID : 4
Format : UTF-8
Codec ID : S_TEXT/UTF8
Codec ID/Info : UTF-8 Plain Text
Duration : 1 h 51 min
Bit rate : 2 b/s
Count of elements : 45
Stream size : 1.99 KiB (0%)
Title : Forced
Language : Russian
Default : Yes
Forced : No

Text #2
ID : 5
Format : UTF-8
Codec ID : S_TEXT/UTF8
Codec ID/Info : UTF-8 Plain Text
Duration : 1 h 53 min
Bit rate : 65 b/s
Count of elements : 940
Stream size : 54.6 KiB (0%)
Title : Full
Language : Russian
Default : No
Forced : No

Text #3
ID : 6
Format : UTF-8
Codec ID : S_TEXT/UTF8
Codec ID/Info : UTF-8 Plain Text
Duration : 1 h 53 min
Bit rate : 37 b/s
Count of elements : 1038
Stream size : 30.9 KiB (0%)
Title : Full
Language : English
Default : No
Forced : No

Text #4
ID : 7
Format : UTF-8
Codec ID : S_TEXT/UTF8
Codec ID/Info : UTF-8 Plain Text
Duration : 1 h 53 min
Bit rate : 43 b/s
Count of elements : 1244
Stream size : 35.7 KiB (0%)
Title : SDH
Language : English
Default : No
Forced : No

Text #5
ID : 8
Format : UTF-8
Codec ID : S_TEXT/UTF8
Codec ID/Info : UTF-8 Plain Text
Duration : 1 h 53 min
Bit rate : 55 b/s
Count of elements : 1244
Stream size : 45.7 KiB (0%)
Title : SDH-Colored
Language : English
Default : No
Forced : No

Menu
00:00:00.000 : en:Chapter 1
00:04:04.661 : en:Chapter 2
00:08:21.543 : en:Chapter 3
00:13:32.687 : en:Chapter 4
00:18:28.316 : en:Chapter 5
00:24:07.237 : en:Chapter 6
00:29:21.259 : en:Chapter 7
00:36:15.548 : en:Chapter 8
00:42:20.663 : en:Chapter 9
00:48:22.441 : en:Chapter 10
00:55:12.184 : en:Chapter 11
01:01:09.666 : en:Chapter 12
01:08:32.483 : en:Chapter 13
01:16:23.329 : en:Chapter 14
01:24:45.330 : en:Chapter 15
01:29:06.550 : en:Chapter 16
01:37:52.909 : en:Chapter 17
01:44:26.343 : en:Chapter 18
01:48:03.727 : en:Chapter 19
01:54:01.209 : en:Chapter 20
Просьба к переливающим на другие сайты, в оформлении указывайте пожалуйста авторство группы Ссылка на биткоин кошелек - 1DWGvzWwL9gYLWXkozc7RAoU6KmFnCsWsi Авторская группа в ВК
pb.wtf



Скачать Джейсон Борн: Квадрология через торрент http://img10.lostpic.net/2016/04/18/ec786b10cf19fb0ec730df78c66f6ae6.jpg Скачать, смотреть онлайн Джейсон Борн: Квадрология бесплантно в хорошем качестве Описание: Команда итальянского рыболовецкого судна находит в водах Средиземного моря тело мужчины. У него два пулевых ранения в спине и ... 9.7 10 18
Info! Золотая раздача, скачанное не засчитывается.
Торрент: Зарегистрирован [2018-02-06 11:44] · скачан: 286 раз
Статус: √ проверено
Размер: 13.93 GB
Как cкачать? Как скачать Джейсон Борн: Квадрология через торрент | UTorrent



Последний раз редактировалось: Tiberiumsun69 (2018-02-06 16:09), всего редактировалось 1 раз

28-11-2019 20:33  

Отключить всю рекламу на сайте

04-10-2020 20:33 Джейсон Борн: Квадрология Скачать торрент  

ward чтобы скачать позже Джейсон Борнpb.wtf



    Дорогой пользователь! Огромная просьба, поблагодарите релизера, оцените раздачу и оставьте свои комментарий, если Вы скачали Джейсон Борн: Квадрология через торрент бесплатно!
    Комментировать посты могут только пользователи прошедшие не сложную регистрацию
    Показать сообщения:    

    Джейсон Борн: Квадрология через торрент
    Скачать бесплатно Джейсон Борн: Квадрология
    Джейсон Борн: Квадрология скачать торрент
    Джейсон Борн: Квадрология смотреть онлайн
    Cкачать фильм Джейсон Борн: Квадрология бесплатно
    Джейсон Борн: Квадрология скачать торрент в хорошем качестве
    Джейсон Борн: Квадрология смотреть онлайн бесплатно в хорошем качестве


    Вы не можете начинать темы
    Вы не можете отвечать на сообщения
    Вы не можете редактировать свои сообщения
    Вы не можете удалять свои сообщения
    Вы не можете голосовать в опросах
    Вы не можете прикреплять файлы к сообщениям
    Вы можете скачивать файлы