Ссылка на приватное зеркало всего за 1$. Внимание количество ограничено!!!

iTunes

iTunes

iTunes

1

iTunes

iTunes

iTunes

WEBRip

iTunes

30
pack

$ от Little Big

ВАЖНО

!!Акция!!

Alien_RageХит недели

RePack

Resident Evil 21

ИГРА 18+

pack

RePack

jed

!!Акция!!

Alien_Rage

RePack

fifa19

RePack

Assassins Creed: Odyssey

RePack

NEED FOR SPEED™ PAYBACK

4 сезон

9 сезон

Бесстыжие 9 сезон

Все сериалы

все сериалы на PB.wtf

RePack

FAR CRY 5
  

Звездные парни / Kaiken se kestaa (Виса Койсо-Канттила) [2017 г., драма, семейный, биография, WEB-DLRip, Любительский (двухголосый)[Levelin]] pb.wtf

Звездные парни через торрент pb.wtf

Размер: 1.46 GB | Добавлен: 2 года 5 мес. назад | Торрент скачан:122 раза
Скачать  

06-02-2018 13:01 Звездные парни Скачать торрент  

Звездные парни / Kaiken se kestaa

Год выпуска: 2017

Страна: Финляндия, Швеция

Жанр: драма, семейный, биография

Продолжительность: 01:21:31

Перевод: Любительский (двухголосый)[Levelin]

Субтитры: русские [внешние (отдельно полные и на песни)]

Режиссер: Виса Койсо-Канттила

rating

В ролях: Олави Ангерво, Готфрид Эфф, Томи Энбуска, Хели Хаапалайнен, Ева-Майя Хаукенин, Джони Хильтунен, Антти Каарлела, Райя Каарлела, Рианна Каарлела, Анти Люсуаньеми ...

Описание: История двух семей, которые распадаются из-за крушения моральных ценностей, когда сексуальная революция добирается до маленького консервативного и религиозного городка в Северной Финляндии.

Доп. информация: Рекламы нет.

Качество: WEB-DLRip
Формат: AVI
Видео кодек: XviD
Аудио кодек: AC3
Видео: XviD, 1770 Кбит/сек, 720x384
Аудио#1: Русский: AC3, 6 ch, 384 Кбит/сек
Аудио#2: Финский: AC3, 6 ch, 384 Кбит/сек
скриншот   скриншот   скриншот   скриншот   скриншот  

General
Complete name : H:\релизы.торрентфайл\Kaiken se kestaa (2017)\Kaiken se kestaa (2017).avi
Format : AVI
Format/Info : Audio Video Interleave
Format profile : OpenDML
File size : 1.46 GiB
Duration : 1h 21mn
Overall bit rate : 2 558 Kbps
Writing application : Lavf57.71.100
Comment : Rip by Basma4i

Video
ID : 0
Format : MPEG-4 Visual
Format profile : Advanced Simple@L5
Format settings, BVOP : No
Format settings, QPel : No
Format settings, GMC : No warppoints
Format settings, Matrix : Default (H.263)
Codec ID : XVID
Codec ID/Hint : XviD
Duration : 1h 21mn
Bit rate : 1 770 Kbps
Width : 720 pixels
Height : 384 pixels
Display aspect ratio : 1.882
Frame rate : 24.000 fps
Color space : YUV
Chroma subsampling : 4:2:0
Bit depth : 8 bits
Scan type : Progressive
Compression mode : Lossy
Bits/(Pixel*Frame) : 0.267
Stream size : 1.01 GiB (69%)
Writing library : XviD 67

Audio #1
ID : 1
Format : AC-3
Format/Info : Audio Coding 3
Mode extension : CM (complete main)
Format settings, Endianness : Big
Codec ID : 2000
Duration : 1h 21mn
Bit rate mode : Constant
Bit rate : 384 Kbps
Channel(s) : 6 channels
Channel positions : Front: L C R, Side: L R, LFE
Sampling rate : 48.0 KHz
Bit depth : 16 bits
Compression mode : Lossy
Stream size : 224 MiB (15%)
Alignment : Aligned on interleaves
Interleave, duration : 32 ms (0.77 video frame)

Audio #2
ID : 2
Format : AC-3
Format/Info : Audio Coding 3
Mode extension : CM (complete main)
Format settings, Endianness : Big
Codec ID : 2000
Duration : 1h 21mn
Bit rate mode : Constant
Bit rate : 384 Kbps
Channel(s) : 6 channels
Channel positions : Front: L C R, Side: L R, LFE
Sampling rate : 48.0 KHz
Bit depth : 16 bits
Compression mode : Lossy
Stream size : 224 MiB (15%)
Alignment : Aligned on interleaves
Interleave, duration : 32 ms (0.77 video frame)

pb.wtf



Скачать Звездные парни через торрент http://i101.fastpic.ru/big/2018/0206/a7/7b49527a4678395ecf815ab62021b5a7.jpg Скачать фильм Звездные парни через торрент бесплантно в хорошем качестве Описание: История двух семей, которые распадаются из-за крушения моральных ценностей, когда сексуальная революция добирается до маленького ... 9 10 2
Торрент: Зарегистрирован [2018-02-06 13:01] · скачан: 122 раз
Статус: T временная
Размер: 1.46 GB
Как cкачать? Как скачать Звездные парни через торрент | qTorrent

28-11-2019 20:33  

Отключить всю рекламу на сайте

06-02-2018 13:58 Звездные парни Скачать торрент  

Топик был перенесен из форума Фильмы 2017 [DVDrip, WEB-DLRip, HDrip] (DUB, MVO) в форум Фильмы 2017 (Звук TS, Cam, VO, DVO)


schultzpb.wtf



28-07-2018 19:07 Звездные парни Скачать торрент  

Отличный фильм, драматичный и убедительный, очень красиво снятый. В распаде семей виновата не столько *сексуальная революция*, сколько постепенно накапливающиеся небольшие отступления от моральных ценностей. *Я же всего пол-бака слил...* Финляндия показана такой, что понимаешь откуда в ней такой высокий уровень самоубийств несмотря на сытость и чистоту. Отношение мамаш-героинь к детям вообще разрыв скандинавского шаблона. Рейтинг фильма сильно занижен. Качество рипа и перевод хорошие. Спасибо за раздачу.pb.wtf



    Дорогой пользователь! Огромная просьба, поблагодарите релизера, оцените раздачу и оставьте свои комментарий, если Вы скачали Звездные парни через торрент бесплатно! Внесите свою лепту в развитие PiratBit!
    Комментировать посты могут только пользователи прошедшие не сложную регистрацию
    Показать сообщения:    

    Звездные парни через торрент
    Скачать бесплатно Звездные парни
    Звездные парни скачать торрент
    Звездные парни смотреть онлайн
    Cкачать фильм Звездные парни бесплатно
    Звездные парни скачать торрент в хорошем качестве
    Звездные парни смотреть онлайн бесплатно в хорошем качестве


    Вы не можете начинать темы
    Вы не можете отвечать на сообщения
    Вы не можете редактировать свои сообщения
    Вы не можете удалять свои сообщения
    Вы не можете голосовать в опросах
    Вы не можете прикреплять файлы к сообщениям
    Вы можете скачивать файлы