Всегда рабочее зеркало без VPN и Proxy просто перед .vidak.icu напиши любое слово или цифру, Пример http://naov.vidak.icu

Лицензия

MVO

1 сезон

1

1 сезон

iTunes

1 сезон

13

1 сезон

Deluxe

pack

Рекомендуем

Repack

30

ВАЖНО

RePack

MK11

RePack

jed

RePack

fifa19

RePack

RDR2

RePack

NEED FOR SPEED™ PAYBACK

Кинопоиск HD

6 сезон

 Острые козырьки 6 сезон

Все сериалы

все сериалы на PB.wtf

RePack

FAR CRY 5
  
Magnet ссылка

Deep Purple - Golden Ballads (2CD) - 2013/ FLAC/ image +.cue/ lossless/ Hard Rock pb.wtf

Deep Purple - Golden Ballads через торрент pb.wtf

Размер: 934 MB | Добавлен: 4 года 6 мес. назад | Торрент скачан:118 раз
Смотреть онлайн Deep Purple - Golden Ballads | Скачать    Ребята, помогите собрать деньги на оплату серверов!!!

06-02-2018 13:04 Deep Purple - Golden Ballads Скачать торрент  


Deep Purple - Golden Ballads (2CD)


Год издания: 2013
Страна: UK
Жанр: Hard Rock
Продолжительность: 02:37:37
Лейбл издания: EMI Records
Страна-выпуска диска: Russia
Формат: FLAC
Битрейт аудио: Lossless
Тип рипа: image +.cue
Наличие сканов в содержимом раздачи: да


01. All The Time In The World (4:22)
02. Blood From A Stone (5:18)
03. Child In Time (10:13)
04. No No No (6:54)
05. Anyone's Daughte (4:45)
06. Fools (8:21)
07. Place In Line (2:16)
08. Hallelujah (3:41)
09. The Gypsy (3:43)
10. Medley: a)This Time Around; b) Owed To 'G (6:03)
11. Sail Away (5:52)
12. A' 200 (4:05)
13. Fortunetelle (5:49)
14. Lazy (7:33)

01. Walk On (7:04)
02. Don't Make Me Happy (4:53)
03. You Keep On Moving (5:18)
04. Haunted (4:23)
05. Soldier Of Fortune (3:13)
06. Holy Man (4:27)
07. Mitzi Dupree (5:03)
08. Lalena (5:06)
09. When A Blind Man Cries (3:29)
10. Sometimes I Feel Like Screaming (7:28)
11. Wasted Sunsets (3:55)
12. Anthem (6:28)
13. Our Lady (5:16)
14. Love Conquers All (3:44)
15. Mistreated (7:25)
16. Contact Lost (1:30)

Код:

Exact Audio Copy V1.1 from 23. June 2015

EAC extraction logfile from 4. June 2017, 10:37

Deep Purple / Golden Ballads

Used drive  : TSSTcorpCDDVDW SH-224DB   Adapter: 1  ID: 0

Read mode               : Secure
Utilize accurate stream : Yes
Defeat audio cache      : Yes
Make use of C2 pointers : No

Read offset correction                      : 6
Overread into Lead-In and Lead-Out          : No
Fill up missing offset samples with silence : Yes
Delete leading and trailing silent blocks   : No
Null samples used in CRC calculations       : Yes
Used interface                              : Native Win32 interface for Win NT & 2000

Used output format              : User Defined Encoder
Selected bitrate                : 1024 kBit/s
Quality                         : High
Add ID3 tag                     : No
Command line compressor         : C:\Program Files (x86)\Exact Audio Copy\win64\flac.exe
Additional command line options : -8 -V -T "ARTIST=%artist%" -T "TITLE=%title%" -T "ALBUM=%albumtitle%" -T "DATE=%year%" -T "TRACKNUMBER=%tracknr%" -T "GENRE=%genre%" -T "COMMENT=%comment%" %source% -o %dest%

TOC of the extracted CD

     Track |   Start  |  Length  | Start sector | End sector
    ---------------------------------------------------------
        1  |  0:00.00 |  4:21.44 |         0    |    19618
        2  |  4:21.44 |  5:18.22 |     19619    |    43490
        3  |  9:39.66 | 10:13.31 |     43491    |    89496
        4  | 19:53.22 |  6:53.60 |     89497    |   120531
        5  | 26:47.07 |  4:45.29 |    120532    |   141935
        6  | 31:32.36 |  8:20.69 |    141936    |   179504
        7  | 39:53.30 |  2:16.33 |    179505    |   189737
        8  | 42:09.63 |  3:41.09 |    189738    |   206321
        9  | 45:50.72 |  3:42.39 |    206322    |   223010
       10  | 49:33.36 |  6:03.15 |    223011    |   250250
       11  | 55:36.51 |  5:52.27 |    250251    |   276677
       12  | 61:29.03 |  4:05.00 |    276678    |   295052
       13  | 65:34.03 |  5:48.48 |    295053    |   321200
       14  | 71:22.51 |  7:33.03 |    321201    |   355178

Range status and errors

Selected range

     Filename D:\Sket4er\Deep Purple - Golden Ballads  (2013)\CD - 1\Deep Purple - Golden Ballads.wav

     Peak level 100.0 %
     Extraction speed 3.5 X
     Range quality 100.0 %
     Test CRC B428151F
     Copy CRC B428151F
     Copy OK

No errors occurred

AccurateRip summary

Track  1  not present in database
Track  2  not present in database
Track  3  not present in database
Track  4  not present in database
Track  5  not present in database
Track  6  not present in database
Track  7  not present in database
Track  8  not present in database
Track  9  not present in database
Track 10  not present in database
Track 11  not present in database
Track 12  not present in database
Track 13  not present in database
Track 14  not present in database

None of the tracks are present in the AccurateRip database

End of status report

Код:

Exact Audio Copy V1.1 from 23. June 2015

EAC extraction logfile from 4. June 2017, 11:34

Deep Purple / Golden Ballads

Used drive  : TSSTcorpCDDVDW SH-224DB   Adapter: 1  ID: 0

Read mode               : Secure
Utilize accurate stream : Yes
Defeat audio cache      : Yes
Make use of C2 pointers : No

Read offset correction                      : 6
Overread into Lead-In and Lead-Out          : No
Fill up missing offset samples with silence : Yes
Delete leading and trailing silent blocks   : No
Null samples used in CRC calculations       : Yes
Used interface                              : Native Win32 interface for Win NT & 2000

Used output format              : User Defined Encoder
Selected bitrate                : 1024 kBit/s
Quality                         : High
Add ID3 tag                     : No
Command line compressor         : C:\Program Files (x86)\Exact Audio Copy\win64\flac.exe
Additional command line options : -8 -V -T "ARTIST=%artist%" -T "TITLE=%title%" -T "ALBUM=%albumtitle%" -T "DATE=%year%" -T "TRACKNUMBER=%tracknr%" -T "GENRE=%genre%" -T "COMMENT=%comment%" %source% -o %dest%

TOC of the extracted CD

     Track |   Start  |  Length  | Start sector | End sector
    ---------------------------------------------------------
        1  |  0:00.00 |  7:04.07 |         0    |    31806
        2  |  7:04.07 |  4:53.10 |     31807    |    53791
        3  | 11:57.17 |  5:17.40 |     53792    |    77606
        4  | 17:14.57 |  4:22.47 |     77607    |    97303
        5  | 21:37.29 |  3:12.56 |     97304    |   111759
        6  | 24:50.10 |  4:26.57 |    111760    |   131766
        7  | 29:16.67 |  5:03.28 |    131767    |   154519
        8  | 34:20.20 |  5:05.67 |    154520    |   177461
        9  | 39:26.12 |  3:28.73 |    177462    |   193134
       10  | 42:55.10 |  7:28.29 |    193135    |   226763
       11  | 50:23.39 |  3:54.61 |    226764    |   244374
       12  | 54:18.25 |  6:28.36 |    244375    |   273510
       13  | 60:46.61 |  5:16.06 |    273511    |   297216
       14  | 66:02.67 |  3:43.67 |    297217    |   314008
       15  | 69:46.59 |  7:24.68 |    314009    |   347376
       16  | 77:11.52 |  1:29.46 |    347377    |   354097

Range status and errors

Selected range

     Filename D:\Sket4er\Deep Purple - Golden Ballads  (2013)\CD - 2\Deep Purple - Golden Ballads.wav

     Peak level 100.0 %
     Extraction speed 3.5 X
     Range quality 100.0 %
     Test CRC CAE1C17A
     Copy CRC CAE1C17A
     Copy OK

No errors occurred

AccurateRip summary

Track  1  not present in database
Track  2  not present in database
Track  3  not present in database
Track  4  not present in database
Track  5  not present in database
Track  6  not present in database
Track  7  not present in database
Track  8  not present in database
Track  9  not present in database
Track 10  not present in database
Track 11  not present in database
Track 12  not present in database
Track 13  not present in database
Track 14  not present in database
Track 15  not present in database
Track 16  not present in database

None of the tracks are present in the AccurateRip database

End of status report

Код:

REM GENRE Rock
REM DATE 2013
REM DISCID E1127F0E
REM COMMENT "ExactAudioCopy v1.1"
PERFORMER "Deep Purple"
TITLE "Golden Ballads (CD1)"
FILE "Deep Purple - Golden Ballads (CD1).flac" WAVE
  TRACK 01 AUDIO
    TITLE "All The Time In The World"
    PERFORMER "Deep Purple"
    FLAGS DCP
    INDEX 01 00:00:00
  TRACK 02 AUDIO
    TITLE "Blood From A Stone"
    PERFORMER "Deep Purple"
    FLAGS DCP
    INDEX 01 04:21:44
  TRACK 03 AUDIO
    TITLE "Child In Time"
    PERFORMER "Deep Purple"
    FLAGS DCP
    INDEX 01 09:39:66
  TRACK 04 AUDIO
    TITLE "No No No"
    PERFORMER "Deep Purple"
    FLAGS DCP
    INDEX 01 19:53:22
  TRACK 05 AUDIO
    TITLE "Anyone's Daughte"
    PERFORMER "Deep Purple"
    FLAGS DCP
    INDEX 01 26:47:07
  TRACK 06 AUDIO
    TITLE "Fools"
    PERFORMER "Deep Purple"
    FLAGS DCP
    INDEX 01 31:32:36
  TRACK 07 AUDIO
    TITLE "Place In Line"
    PERFORMER "Deep Purple"
    FLAGS DCP
    INDEX 01 39:53:30
  TRACK 08 AUDIO
    TITLE "Hallelujah"
    PERFORMER "Deep Purple"
    FLAGS DCP
    INDEX 01 42:09:63
  TRACK 09 AUDIO
    TITLE "The Gypsy"
    PERFORMER "Deep Purple"
    FLAGS DCP
    INDEX 01 45:50:72
  TRACK 10 AUDIO
    TITLE "Medley: a)This Time Around; b) Owed To 'G"
    PERFORMER "Deep Purple"
    FLAGS DCP
    INDEX 01 49:33:36
  TRACK 11 AUDIO
    TITLE "Sail Away"
    PERFORMER "Deep Purple"
    FLAGS DCP
    INDEX 01 55:36:51
  TRACK 12 AUDIO
    TITLE "A' 200"
    PERFORMER "Deep Purple"
    FLAGS DCP
    INDEX 01 61:29:03
  TRACK 13 AUDIO
    TITLE "Fortunetelle"
    PERFORMER "Deep Purple"
    FLAGS DCP
    INDEX 01 65:34:03
  TRACK 14 AUDIO
    TITLE "Lazy"
    PERFORMER "Deep Purple"
    FLAGS DCP
    INDEX 01 71:22:51

Код:

REM GENRE Rock
REM DATE 2013
REM DISCID FA127110
REM COMMENT "ExactAudioCopy v1.1"
PERFORMER "Deep Purple"
TITLE "Golden Ballads (CD2)"
FILE "Deep Purple - Golden Ballads (CD2).flac" WAVE
  TRACK 01 AUDIO
    TITLE "Walk On"
    PERFORMER "Deep Purple"
    FLAGS DCP
    INDEX 01 00:00:00
  TRACK 02 AUDIO
    TITLE "Don't Make Me Happy"
    PERFORMER "Deep Purple"
    FLAGS DCP
    INDEX 01 07:04:07
  TRACK 03 AUDIO
    TITLE "You Keep On Moving"
    PERFORMER "Deep Purple"
    FLAGS DCP
    INDEX 01 11:57:17
  TRACK 04 AUDIO
    TITLE "Haunted"
    PERFORMER "Deep Purple"
    FLAGS DCP
    INDEX 01 17:14:57
  TRACK 05 AUDIO
    TITLE "Soldier Of Fortune"
    PERFORMER "Deep Purple"
    FLAGS DCP
    INDEX 01 21:37:29
  TRACK 06 AUDIO
    TITLE "Holy Man"
    PERFORMER "Deep Purple"
    FLAGS DCP
    INDEX 01 24:50:10
  TRACK 07 AUDIO
    TITLE "Mitzi Dupree"
    PERFORMER "Deep Purple"
    FLAGS DCP
    INDEX 01 29:16:67
  TRACK 08 AUDIO
    TITLE "Halena"
    PERFORMER "Deep Purple"
    FLAGS DCP
    INDEX 01 34:20:20
  TRACK 09 AUDIO
    TITLE "When A Blind Man Cries"
    PERFORMER "Deep Purple"
    FLAGS DCP
    INDEX 01 39:26:12
  TRACK 10 AUDIO
    TITLE "Sometimes I Feel Like Screaming"
    PERFORMER "Deep Purple"
    FLAGS DCP
    INDEX 01 42:55:10
  TRACK 11 AUDIO
    TITLE "Wasted Sunsets"
    PERFORMER "Deep Purple"
    FLAGS DCP
    INDEX 01 50:23:39
  TRACK 12 AUDIO
    TITLE "Anthem"
    PERFORMER "Deep Purple"
    FLAGS DCP
    INDEX 01 54:18:25
  TRACK 13 AUDIO
    TITLE "Our Lady"
    PERFORMER "Deep Purple"
    FLAGS DCP
    INDEX 01 60:46:61
  TRACK 14 AUDIO
    TITLE "Love Conquers All"
    PERFORMER "Deep Purple"
    FLAGS DCP
    INDEX 01 66:02:67
  TRACK 15 AUDIO
    TITLE "Mistreated"
    PERFORMER "Deep Purple"
    FLAGS DCP
    INDEX 01 69:46:59
  TRACK 16 AUDIO
    TITLE "Contact Lost"
    PERFORMER "Deep Purple"
    FLAGS DCP
    INDEX 01 77:11:52



pb.wtf



Скачать Deep Purple - Golden Ballads через торрент http://i102.fastpic.ru/big/2018/0206/6b/c519632a1535263a18949882fbe0676b.png Скачать, смотреть онлайн Deep Purple - Golden Ballads бесплантно в хорошем качестве ... 10 10 1
Торрент: Зарегистрирован [2018-02-06 13:04] · скачан: 118 раз
Статус: √ проверено
Размер: 934 MB
Как cкачать? Как скачать Deep Purple - Golden Ballads через торрент | UTorrent

28-11-2019 20:33  

Отключить вcю реклaмy на сайте

06-02-2018 19:01 Deep Purple - Golden Ballads Скачать торрент  

Спасибо!Уже кайфую!pb.wtf



06-02-2018 19:13 Deep Purple - Golden Ballads Скачать торрент  

dmitry_gr555 писал(а):

Спасибо!Уже кайфую!

Пожалуйста. Приятного прослушивания!!! pb.wtf



    Дорогой пользователь! Огромная просьба, поблагодарите релизера, оцените раздачу и оставьте свои комментарий, если Вы скачали Deep Purple - Golden Ballads через торрент бесплатно!
    Комментировать посты могут только пользователи прошедшие не сложную регистрацию
    Показать сообщения:    

    Deep Purple - Golden Ballads через торрент
    Скачать бесплатно Deep Purple - Golden Ballads
    Deep Purple - Golden Ballads скачать торрент
    Deep Purple - Golden Ballads смотреть онлайн
    Cкачать фильм Deep Purple - Golden Ballads бесплатно
    Deep Purple - Golden Ballads скачать торрент в хорошем качестве
    Deep Purple - Golden Ballads смотреть онлайн бесплатно в хорошем качестве


    Вы не можете начинать темы
    Вы не можете отвечать на сообщения
    Вы не можете редактировать свои сообщения
    Вы не можете удалять свои сообщения
    Вы не можете голосовать в опросах
    Вы не можете прикреплять файлы к сообщениям
    Вы можете скачивать файлы