Ссылка на приватное зеркало нашего сайта всего за 1$. Внимание количество ограничено!!!

2 сезон

iTunes

1 сезон

1

2 сезон

2 сезон

iTunes

1 сезон

RePack

30

Новинка

ВАЖНО

ИГРА 18+

pack

RePack

MK11
pack

Забери бонус

RePack

jed

!!Акция!!

Alien_Rage

RePack

fifa19

RePack

Assassins Creed: Odyssey

RePack

NEED FOR SPEED™ PAYBACK

4 сезон

9 сезон

Бесстыжие 9 сезон

Все сериалы

все сериалы на PB.wtf

RePack

FAR CRY 5
  

Проклятие Хопвелл / Nails (Дэннис Барток) [2017, ужасы, WEB-DL 720p] DUB [iTunes] pb.wtf

Проклятие Хопвелл через торрент pb.wtf

Размер: 2.64 GB | Добавлен: 2 года 9 мес. назад | Торрент скачан:130 раз
Скачать  

06-02-2018 15:06 Проклятие Хопвелл Скачать торрент  

Проклятие Хопвелл / NailsГод выпуска: 2017
Страна: Ирландия
Жанр: ужасы
Продолжительность: 01:24:59
Перевод: Дублированный | iTunes
Субтитры: отсутствуют

Режиссер: Дэннис Барток

rating

В ролях:

Шона МакДональд, Леа Макнамара, Росс Ноубл, Стив Уолл, Дэннис Барток, Шарлотта Брэдли, Ричард Фостер-Кинг, Роберт О’Мэхони

Описание:

Около 30 лет назад при загадочных обстоятельствах в больнице Хопвелл были убиты пять детей… После автокатастрофы именно в эту больницу попадает Дана. Она убеждена, что в своей больничной палате она не одна. Ей предстоит узнать страшные тайны, которые много лет ​скрываются в стенах этого госпиталя. Они окажутся намного ужаснее, чем она могла себе представить. Является ли это лишь её воображением или всё это происходит с ней на самом деле..?

Качество: WEB-DL 720p
Формат: MKV

Видео: MPEG-4 AVC, 4065 Кбит/с, 1280x536
Аудио: AC3, 6 ch, 384 Кбит/с
скриншот   скриншот   скриншот  

Общее
Уникальный идентификатор : 225209063993780227670622668080300748370 (0xA96DB02160B5234FF089E71C9EE4EE52)
Полное имя : C:\Users\Бобер\Desktop\Proklyatue.XonnBell.2017.Web-DL.720p.mkv
Формат : Matroska
Версия формата : Version 4 / Version 2
Размер файла : 2,64 Гбайт
Продолжительность : 1 ч. 24 м.
Общий поток : 4451 Кбит/сек
Дата кодирования : UTC 2018-02-04 22:12:54
Программа кодирования : mkvmerge v19.0.0 ('Brave Captain') 64-bit
Библиотека кодирования : libebml v1.3.5 + libmatroska v1.4.8

Видео
Идентификатор : 1
Формат : AVC
Формат/Информация : Advanced Video Codec
Профиль формата : Main@L3.1
Параметр CABAC формата : Нет
Параметр ReFrames формата : 2 кадра
Идентификатор кодека : V_MPEG4/ISO/AVC
Продолжительность : 1 ч. 24 м.
Битрейт : 4065 Кбит/сек
Ширина : 1280 пикселей
Высота : 536 пикселей
Соотношение сторон : 2,40:1
Режим частоты кадров : Постоянный
Частота кадров : 24,000 кадра/сек
Цветовое пространство : YUV
Субдискретизация насыщенности : 4:2:0
Битовая глубина : 8 бит
Тип развёртки : Прогрессивная
Бит/(Пиксели*Кадры) : 0.247
Размер потока : 2,41 Гбайт (91%)
Язык : English
Default : Да
Forced : Нет
Цветовой диапазон : Limited
Основные цвета : BT.709
Характеристики трансфера : BT.709
Коэффициенты матрицы : BT.709

Аудио
Идентификатор : 2
Формат : AC-3
Формат/Информация : Audio Coding 3
Расширение режима : CM (complete main)
Параметр Endianness формата : Big
Идентификатор кодека : A_AC3
Продолжительность : 1 ч. 24 м.
Вид битрейта : Постоянный
Битрейт : 384 Кбит/сек
Каналы : 6 каналов
Расположение каналов : Front: L C R, Side: L R, LFE
Частота : 48,0 КГц
Частота кадров : 31,250 кадров/сек (1536 spf)
Метод сжатия : С потерями
Задержка видео : -42 мс.
Размер потока : 233 Мбайт (9%)
Язык : Russian
Default : Да
Forced : Нет

pb.wtf



Скачать Проклятие Хопвелл через торрент http://s018.radikal.ru/i527/1711/31/030ca7a551bc.png Скачать фильм Проклятие Хопвелл через торрент бесплантно в хорошем качестве Описание: Около 30 лет назад при загадочных обстоятельствах в больнице Хопвелл были убиты пять детей… После автокатастрофы именно в эту ... 9.7 10 7
Торрент: Зарегистрирован [2018-02-06 15:06] · скачан: 130 раз
Статус: √ проверено
Размер: 2.64 GB
Как cкачать? Как скачать Проклятие Хопвелл через торрент | qTorrent

% Раздел Тема Автор DL S | L
Фильмы (WEB-DL 720p, 1080p) [ 2.99 GB ] Проклятие Хопвелл / Nails [2017 WEB-DL 1080p] bober100 Скачать
1 | 0
Фильмы 2017 [DVDrip, WEB-DLRip, HDrip] (DUB, MVO) [ 1.44 GB ] Проклятие Хопвелл / Nails [2017 WEB-DLRip] bober100 Скачать
1 | 0
Фильмы 2017 [DVDrip, WEB-DLRip, HDrip] (DUB, MVO) [ 1.24 GB ] Проклятие Хопвелл / Nails [2017 WEB-DLRip-AVC] bober100 Скачать
1 | 0

28-11-2019 20:33  

Отключить всю рекламу на сайте

07-02-2018 16:21 Проклятие Хопвелл Скачать торрент  

nails вроде гвоздьpb.wtf



    Дорогой пользователь! Огромная просьба, поблагодарите релизера, оцените раздачу и оставьте свои комментарий, если Вы скачали Проклятие Хопвелл через торрент бесплатно! Внесите свою лепту в развитие PiratBit!
    Комментировать посты могут только пользователи прошедшие не сложную регистрацию
    Показать сообщения:    

    Проклятие Хопвелл через торрент
    Скачать бесплатно Проклятие Хопвелл
    Проклятие Хопвелл скачать торрент
    Проклятие Хопвелл смотреть онлайн
    Cкачать фильм Проклятие Хопвелл бесплатно
    Проклятие Хопвелл скачать торрент в хорошем качестве
    Проклятие Хопвелл смотреть онлайн бесплатно в хорошем качестве


    Вы не можете начинать темы
    Вы не можете отвечать на сообщения
    Вы не можете редактировать свои сообщения
    Вы не можете удалять свои сообщения
    Вы не можете голосовать в опросах
    Вы не можете прикреплять файлы к сообщениям
    Вы можете скачивать файлы