Ссылка на приватное зеркало нашего сайта всего за 1$. Внимание количество ограничено!!!

2 сезон

iTunes

1 сезон

1

iTunes

iTunes

iTunes

1 сезон

RePack

30

ИГРА 18+

pack

ВАЖНО

!!Акция!!

Alien_RageХит недели

RePack

MK11
pack

Забери бонус

RePack

jed

!!Акция!!

Alien_Rage

RePack

fifa19

RePack

Assassins Creed: Odyssey

RePack

NEED FOR SPEED™ PAYBACK

4 сезон

9 сезон

Бесстыжие 9 сезон

Все сериалы

все сериалы на PB.wtf

RePack

FAR CRY 5
  

Остров / Сезон 2 / Серии 1-19 из 19 (Александр Наумов (II), Михаил Старчак, Артем Насыбулин) [2018, Комедия, WEB-DL 720p] pb.wtf

Остров через торрент pb.wtf

Размер: 11.59 GB | Добавлен: 2 года 7 мес. назад | Торрент скачан:176 раз
Скачать  

06-02-2018 16:33 Остров Скачать торрент  

ОстровГод выпуска: 2018
Страна: Россия
Жанр: Комедия
Продолжительность: ~ 00:24:00
Субтитры: Нет

Режиссер: Александр Наумов (II), Михаил Старчак, Артем Насыбулин



В ролях:

Янина Студилина, Денис Косяков, Ирина Вилкова, Кирилл Мелехов, Анастасия Асеева, Анфиса Вистингаузен, Григорий Калинин, Евгений Кулик, Роман Хан, Олеся Жураковская, Леонид Моложанов, Сергей Бурунов, Светлана Павлова, Светлана Харлап, Игорь Жижикин, Елена Ан, Василий Мичков, Георгий Пицхелаури, Азамат Нигманов, Евгений Сангаджиев

Описание:

«Остров» - комедийный сериал на телеканале ТНТ, события которого разворачиваются на небольшом необитаемом острове. На место прибыла съемочная команда и группа участников. По идеи программы участникам предстоит жесткая борьба друг с другом, а так же с дикими условиями проживания. Они будут получать задания, которые должны выполнить. И каждое успешно выполненное задание увеличивает их денежный счет.

Качество: WEB-DL 720p
Формат: MKV
Видео кодек: H.264
Аудио кодек: AC3

Видео: MPEG-4 AVC, ~ 3500 Кбит/с, 1280x720
Аудио: AC3, 2 ch, 192 Кбит/с
скриншот   скриншот   скриншот   скриншот   скриншот   скриншот   скриншот  
скриншот  

Общее
Уникальный идентификатор : 201340319997391985751431247083838064852 (0x9778BC3173394F6983F1602FED9348D4)
Полное имя : D:\Ostrov.sO2.2018. WEB-DL.720p. Files-x\01. Ostrov.(s02).2018. WEB-DL 720p. Files-x.mkv
Формат : Matroska
Версия формата : Version 2
Размер файла : 686 Мбайт
Продолжительность : 25 м. 29 с.
Общий поток : 3761 Кбит/сек
Дата кодирования : UTC 2018-02-06 02:49:41
Программа кодирования : mkvmerge v7.8.0 ('River Man') 32bit built on Apr 3 2015 12:11:22
Библиотека кодирования : libebml v1.3.1 + libmatroska v1.4.2

Видео
Идентификатор : 1
Формат : AVC
Формат/Информация : Advanced Video Codec
Профиль формата : High@L3.1
Параметр CABAC формата : Да
Параметр ReFrames формата : 1 кадр
Параметр GOP формата : M=1, N=12
Идентификатор кодека : V_MPEG4/ISO/AVC
Продолжительность : 25 м. 29 с.
Битрейт : 3494 Кбит/сек
Ширина : 1280 пикселей
Высота : 720 пикселей
Соотношение сторон : 16:9
Режим частоты кадров : Постоянный
Частота кадров : 25,000 кадров/сек
Стандарт вещания : Component
Цветовое пространство : YUV
Субдискретизация насыщенности : 4:2:0
Битовая глубина : 8 бит
Тип развёртки : Прогрессивная
Бит/(Пиксели*Кадры) : 0.152
Размер потока : 637 Мбайт (93%)
Default : Да
Forced : Нет
Цветовой диапазон : Limited

Аудио
Идентификатор : 2
Формат : AC-3
Формат/Информация : Audio Coding 3
Расширение режима : CM (complete main)
Параметр Endianness формата : Big
Идентификатор кодека : A_AC3
Продолжительность : 25 м. 29 с.
Вид битрейта : Постоянный
Битрейт : 192 Кбит/сек
Каналы : 2 канала
Расположение каналов : Front: L R
Частота : 44,1 КГц
Частота кадров : 28,711 кадров/сек (1536 spf)
Метод сжатия : С потерями
Размер потока : 35,0 Мбайт (5%)
Default : Да
Forced : Нет

Внимание! Раздача ведётся путём добавления новых серий; при каждом добавлении создаётся новый торрент. Чтобы начать докачку новой серии, пользователям необходимо сделать следующее:
(1) остановить скачивание,
(2) удалить старый торрент у себя из клиента (старые серии удалять не надо),
(3) скачать новый торрент и запустить его у себя в клиенте вместо старого, при этом указать клиенту путь в старую папку куда и должно происходить скачивание новых серий.
Ваш клиент при этом должен произвести хеширование (проверку) старой папки (если не производит сам - помогите ему сделать это), и будет докачивать только те серии которых у вас ещё нет. Старые серии при этом не удаляются, а продолжают раздаваться!
Eсли вы уже удалили старые серии, то предотвратить повторную закачку старых серий можно, отжав галочку в соответствующих местах при запуске нового торрента. По возможности, желательно не удалять старые серии как можно дольше чтобы релизёр не столько продолжал раздавать старые серии, а смог сконцентрироваться на новых.
pb.wtf



Скачать Остров через торрент http://i103.fastpic.ru/big/2018/0205/98/e53b264d02df9a805097b0fee1c5f698.jpg Скачать фильм Остров через торрент бесплантно в хорошем качестве Описание: «Остров» - комедийный сериал на телеканале ТНТ, события которого разворачиваются на небольшом необитаемом острове. На место ... 9.5 10 24
Торрент: Зарегистрирован [2018-03-08 12:38] · скачан: 176 раз
Статус: √ проверено
Размер: 11.59 GB
Как cкачать? Как скачать Остров через торрент | qTorrent

% Раздел Тема Автор DL S | L
Наши сериалы [ 6.09 GB ] Остров / Сезон: 2 / Серии 1-19 из 19 Михаил Старчак Артем Насыбулин) [2018 WEB-DLRip] GEKADOL Скачать
1 | 0
Наши сериалы [ 6.74 GB ] Остров / Сезон 2 / Серии 1-19 из 19 Михаил Старчак Артем Насыбулин) [2018 HDTVRip-AVC] bober100 Скачать
1 | 0
Наши сериалы [ 25.86 GB ] Остров / Сезон 2 / Серии 1-19 из 19 Михаил Старчак Артем Насыбулин) [2018 HDTV 1080i] bober100 Скачать
1 | 0
Наши сериалы [ 3.45 GB ] Остров / Сезон 2 / Серии 1-19 из 19 Михаил Старчак Артем Насыбулин) [2018 HDTVRip] bober100 Скачать
1 | 0
Наши сериалы [ 5.58 GB ] Остров / Сезон 2 / Серии 1-19 из 19 Михаил Старчак Артем Насыбулин) [2018 SATRip] bober100 Скачать
1 | 0


Последний раз редактировалось: bober100 (2018-03-08 12:37), всего редактировалось 5 раз(а)

28-11-2019 20:33  

Отключить всю рекламу на сайте

05-03-2018 19:50 Остров Скачать торрент  


pb.wtf



    Дорогой пользователь! Огромная просьба, поблагодарите релизера, оцените раздачу и оставьте свои комментарий, если Вы скачали Остров через торрент бесплатно! Внесите свою лепту в развитие PiratBit!
    Комментировать посты могут только пользователи прошедшие не сложную регистрацию
    Показать сообщения:    

    Остров через торрент
    Скачать бесплатно Остров
    Остров скачать торрент
    Остров смотреть онлайн
    Cкачать фильм Остров бесплатно
    Остров скачать торрент в хорошем качестве
    Остров смотреть онлайн бесплатно в хорошем качестве


    Вы не можете начинать темы
    Вы не можете отвечать на сообщения
    Вы не можете редактировать свои сообщения
    Вы не можете удалять свои сообщения
    Вы не можете голосовать в опросах
    Вы не можете прикреплять файлы к сообщениям
    Вы можете скачивать файлы