Ссылка на приватное зеркало нашего сайта всего за 1$. Внимание количество ограничено!!!

2 сезон

iTunes

1 сезон

1

iTunes

iTunes

iTunes

1 сезон

RePack

30

ИГРА 18+

pack

ВАЖНО

!!Акция!!

Alien_RageХит недели

RePack

MK11
pack

Забери бонус

RePack

jed

!!Акция!!

Alien_Rage

RePack

fifa19

RePack

Assassins Creed: Odyssey

RePack

NEED FOR SPEED™ PAYBACK

4 сезон

9 сезон

Бесстыжие 9 сезон

Все сериалы

все сериалы на PB.wtf

RePack

FAR CRY 5
  

Стоматолог / Сезон: 1 / Серии: 1-20 из 20 (Александр Тименко, Сергей Толкушкин) [2018, Детектив, WEB-DLRip] pb.wtf

Стоматолог через торрент pb.wtf

Размер: 11.72 GB | Добавлен: 2 года 7 мес. назад | Торрент скачан:19 раз
Скачать  

06-02-2018 21:26 Стоматолог Скачать торрент  

СтоматологГод выпуска: 2018
Страна: Украина
Жанр: Детектив
Продолжительность: ~ 00:47:00
Перевод: Не требуется
Субтитры: отсутствуют

Режиссер: Александр Тименко, Сергей Толкушкин

В ролях:

Сергей Басок, Виталий Метерчук, Артем Позняк, Юрий Яковлев, Павел Тупиков, Сергей Малюга, Екатерина Варченко, Ольга Голдис, Оксана Гребенюк

Описание:

Основанный на повести Павла «Паштета» Белянского сериал повествует о молодом собственнике стоматологической клиники по имени Дмитрий Торопкой. Он встречает девушку, в которую влюбляется, но происходит убийство, которое смешало все карты. Подозревая, что его новая возлюбленная каким-то образом связана с произошедшим, Дмитрий решает разобраться во всем сам. Чувствуя, что ему нужна помощь, Дмитрий привлекает к расследованию своих друзей – гинеколога Петра Демина и бывшего бандита, а ныне бизнесмена, Сергея Грязева..

Качество: WEB-DLRip
Формат: AVI

Видео: XviD, ~ 1550 Кбит/с, 720x400
Аудио: AC3, 2 ch, 192 Кбит/с

скриншот  скриншот  скриншот  

Общее
Полное имя : D:\Stomotolog.2017.WEB-DLRip.Files-x\01.Stomotolog.2017.WEB-DLRip.Files-x.avi
Формат : AVI
Формат/Информация : Audio Video Interleave
Размер файла : 601 Мбайт
Продолжительность : 48 м. 6 с.
Общий поток : 1746 Кбит/сек
Программа кодирования : VirtualDubMod 1.5.10.3 | www.virtualdub-fr.org || (build 2550/release)
Библиотека кодирования : VirtualDubMod build 2550/release

Видео
Идентификатор : 0
Формат : MPEG-4 Visual
Профиль формата : Advanced Simple@L5
Параметр BVOP формата : 1
Параметр QPel формата : Нет
Параметр GMC формата : Без точки перехода
Параметр матрицы формата : Выборочная
Идентификатор кодека : XVID
Идентификатор кодека/Подсказка : XviD
Продолжительность : 48 м. 6 с.
Битрейт : 1545 Кбит/сек
Ширина : 720 пикселей
Высота : 400 пикселей
Соотношение сторон : 16:9
Частота кадров : 25,000 кадров/сек
Цветовое пространство : YUV
Субдискретизация насыщенности : 4:2:0
Битовая глубина : 8 бит
Тип развёртки : Прогрессивная
Метод сжатия : С потерями
Бит/(Пиксели*Кадры) : 0.215
Размер потока : 531 Мбайт (88%)
Библиотека кодирования : XviD 73

Аудио
Идентификатор : 1
Формат : AC-3
Формат/Информация : Audio Coding 3
Расширение режима : CM (complete main)
Параметр Endianness формата : Big
Идентификатор кодека : 2000
Продолжительность : 48 м. 6 с.
Вид битрейта : Постоянный
Битрейт : 192 Кбит/сек
Каналы : 2 канала
Расположение каналов : Front: L R
Частота : 48,0 КГц
Частота кадров : 31,250 кадров/сек (1536 spf)
Метод сжатия : С потерями
Размер потока : 66,1 Мбайт (11%)
Выравнивание : Разделение по промежуткам
Продолжительность промежутка : 40 мс. (1,00 видеокадр)
Время предзагрузки промежутка : 500 мс.

Внимание! Раздача ведётся путём добавления новых серий; при каждом добавлении создаётся новый торрент. Чтобы начать докачку новой серии, пользователям необходимо сделать следующее:
(1) остановить скачивание,
(2) удалить старый торрент у себя из клиента (старые серии удалять не надо),
(3) скачать новый торрент и запустить его у себя в клиенте вместо старого, при этом указать клиенту путь в старую папку куда и должно происходить скачивание новых серий.
Ваш клиент при этом должен произвести хеширование (проверку) старой папки (если не производит сам - помогите ему сделать это), и будет докачивать только те серии которых у вас ещё нет. Старые серии при этом не удаляются, а продолжают раздаваться!
Eсли вы уже удалили старые серии, то предотвратить повторную закачку старых серий можно, отжав галочку в соответствующих местах при запуске нового торрента. По возможности, желательно не удалять старые серии как можно дольше чтобы релизёр не столько продолжал раздавать старые серии, а смог сконцентрироваться на новых.
pb.wtf



Скачать Стоматолог через торрент http://img12.lostpic.net/2018/02/06/fb97f7d53278b0181ded954053b3d5a7.jpg Скачать фильм Стоматолог через торрент бесплантно в хорошем качестве Описание: Основанный на повести Павла «Паштета» Белянского сериал повествует о молодом собственнике стоматологической клиники по имени ... 7.4 10 8
Info! Серебряная раздача, засчитывается только 50% скачанного.
Торрент: Зарегистрирован [2018-03-08 09:21] · скачан: 19 раз
Статус: √ проверено
Размер: 11.72 GB
Как cкачать? Как скачать Стоматолог через торрент | qTorrent

% Раздел Тема Автор DL S | L
Наши сериалы [ 11.53 GB ] Стоматолог / Сезон: 1 / Серии: 1-20 из 20 [2018 WEB-DLRip-AVC] bober100 Скачать
1 | 0


Последний раз редактировалось: bober100 (2018-03-08 09:21), всего редактировалось 14 раз(а)

28-11-2019 20:33  

Отключить всю рекламу на сайте

13-02-2018 03:05 Стоматолог Скачать торрент  

сериал бомбаpb.wtf



    Дорогой пользователь! Огромная просьба, поблагодарите релизера, оцените раздачу и оставьте свои комментарий, если Вы скачали Стоматолог через торрент бесплатно! Внесите свою лепту в развитие PiratBit!
    Комментировать посты могут только пользователи прошедшие не сложную регистрацию
    Показать сообщения:    

    Стоматолог через торрент
    Скачать бесплатно Стоматолог
    Стоматолог скачать торрент
    Стоматолог смотреть онлайн
    Cкачать фильм Стоматолог бесплатно
    Стоматолог скачать торрент в хорошем качестве
    Стоматолог смотреть онлайн бесплатно в хорошем качестве


    Вы не можете начинать темы
    Вы не можете отвечать на сообщения
    Вы не можете редактировать свои сообщения
    Вы не можете удалять свои сообщения
    Вы не можете голосовать в опросах
    Вы не можете прикреплять файлы к сообщениям
    Вы можете скачивать файлы