Ссылка на приватное зеркало нашего сайта всего за 1$. Внимание количество ограничено!!!

2 сезон

iTunes

1 сезон

1

iTunes

iTunes

iTunes

1 сезон

RePack

30

ИГРА 18+

pack

ВАЖНО

!!Акция!!

Alien_RageХит недели

RePack

MK11
pack

Забери бонус

RePack

jed

!!Акция!!

Alien_Rage

RePack

fifa19

RePack

Assassins Creed: Odyssey

RePack

NEED FOR SPEED™ PAYBACK

4 сезон

9 сезон

Бесстыжие 9 сезон

Все сериалы

все сериалы на PB.wtf

RePack

FAR CRY 5
  

Уик-энд у Берни / Weekend at Bernie's (Тед Котчефф) [1989, комедия, криминал, приключения, BDRip 720p by msltel] MVO, DVO, 4 x AVO pb.wtf

Уик-энд у Берни через торрент pb.wtf

Размер: 4.92 GB | Добавлен: 2 года 8 мес. назад | Торрент скачан:60 раз
Скачать  

07-02-2018 05:46 Уик-энд у Берни Скачать торрент  

Название: Уик-энд у Берни
Оригинальное название: Weekend at Bernie's
Год выпуска: 1989
Страна: США
Жанр: комедия, криминал, приключения
Продолжительность: 01:39:02
Перевод: профессиональный многоголосый, профессиональный двухголосый, авторский

Режиссер: Тед Котчефф
В ролях: Эндрю МакКарти, Джонатан Силвермен, Катрин Мэри Стюарт, Терри Кайзер, Дон Кэлфа, Катрин Паркс, Элуиз Деджориа, Грегори Салата, Луис Гьямбалво, Тед Котчефф, Маргарет Холл, Тимоти Перез, Энтони Маннино, Полли Сигал, Брюс Пол Барбо, Джейсон Уолинер, Дэн Кокс, Стив Ховард, Лорри Линдберг, Джек Халлетт, Джон Беннс, Мерт Хэтфилд, Джек Кэнон, Джойс Ли Боуден, Стефанос Мильцакакис, Дэн Престон, Жан Лилз, Лиза Шерилл Гэннон, Рэйчел Льюис, Дэн Варго, Патриция Роузман, Рональд С. Росс, Джордж Чунг, Лу Крискуоло, Эдвард Литтл Дин, Стивен Фишер, Синди Фостер Джонс, Ричард В. Бучер, Тина Дайан Кинг, Скуби Винсент

О фильме: Двое молодых работников страховой компании обнаруживают в бухгалтерских книгах, что кто-то четыре раза получает деньги по страховому полису покойника. О чём они честно сообщают своему начальнику Берни, живущему явно не по средствам. Берни, а именно он и занимается хищениями, приглашает ребят на уик-энд в свой роскошный дом на океане, чтобы, с помощью своих друзей из мафии, убить своих слишком старательных подчинённых. Но босс мафии велит убить самого Берни, узнав, что тот «окучивает» его любовницу. Что и было сделано при помощи укола в ягодицу. Ребятам, приехавшим на уик-енд, приходится выдавать Берни за живого, что было нетрудно, учитывая весёлое состояние многочисленных гостей...



Качество: BDRip 720p
Формат: MKV
Видео: MPEG-4 AVC, 5569 Kбит/с, 1276x720
Аудио 1: русский, AC3, 192 kbps, 2 ch, 48 kHz [закадровый многоголосый]
Аудио 2: русский, AC3, 192 kbps, 2 ch, 48 kHz [закадровый двухголосый, THT]
Аудио 3: русский, AC3, 192 kbps, 2 ch, 48 kHz [авторский, Андрей Дольский]
Аудио 4: русский, AC3, 192 kbps, 2 ch, 48 kHz [авторский, Вартан Дохалов (вариант 1)]
Аудио 5: русский, AC3, 192 kbps, 2 ch, 48 kHz [авторский, Вартан Дохалов (вариант 2)]
Аудио 6: русский, AC3, 192 kbps, 2 ch, 48 kHz [авторский, Юрий Живов]
Аудио 7: русский, AC3, 192 kbps, 2 ch, 48 kHz [авторский, Алексей Михалёв]
Аудио 8: английский, AC3, 192 kbps, 2 ch, 48 kHz [оригинал]
Субтитры 1: русские
Субтитры 2: английские
Неименованные главы/чаптеры.
Общее
Уникальный идентификатор : 186053170745371764919976099197680090619 (0x8BF8898B184DAA439635DC5EBFBFFDFB)
Полное имя : D:\Video\Уик-энд у Берни.1989.BDRip.720p by msltel.mkv
Формат : Matroska
Версия формата : Version 4 / Version 2
Размер файла : 4,92 Гбайт
Продолжительность : 1 ч. 39 м.
Общий поток : 7107 Кбит/сек
Название фильма : Rip by msltel
Дата кодирования : UTC 2018-02-06 14:48:59
Программа кодирования : mkvmerge v8.2.0 ('World of Adventure') 64bit
Библиотека кодирования : libebml v1.3.1 + libmatroska v1.4.2

Видео
Идентификатор : 1
Формат : AVC
Формат/Информация : Advanced Video Codec
Профиль формата : High@L4.1
Настройки формата : CABAC / 9 Ref Frames
Параметр CABAC формата : Да
Параметр RefFrames формата : 9 кадров
Идентификатор кодека : V_MPEG4/ISO/AVC
Продолжительность : 1 ч. 38 м.
Битрейт : 5569 Кбит/сек
Ширина : 1276 пикселей
Высота : 720 пикселей
Соотношение сторон : 16:9
Режим частоты кадров : Постоянный
Частота кадров : 23,976 (24000/1001) кадра/сек
Цветовое пространство : YUV
Субдискретизация насыщенности : 4:2:0
Битовая глубина : 8 бит
Тип развёртки : Прогрессивная
Бит/(Пиксели*Кадры) : 0.253
Размер потока : 3,85 Гбайт (78%)
Библиотека кодирования : x264 core 146 r2538 121396c
Настройки программы : cabac=1 / ref=9 / deblock=1:-3:-2 / analyse=0x3:0x113 / me=umh / subme=11 / psy=1 / psy_rd=1.00:0.15 / mixed_ref=1 / me_range=32 / chroma_me=1 / trellis=2 / 8x8dct=1 / cqm=0 / deadzone=21,11 / fast_pskip=0 / chroma_qp_offset=-3 / threads=6 / lookahead_threads=1 / sliced_threads=0 / nr=0 / decimate=1 / interlaced=0 / bluray_compat=0 / constrained_intra=0 / bframes=7 / b_pyramid=2 / b_adapt=2 / b_bias=0 / direct=1 / weightb=1 / open_gop=0 / weightp=2 / keyint=230 / keyint_min=23 / scenecut=40 / intra_refresh=0 / rc_lookahead=40 / rc=crf / mbtree=0 / crf=18.5 / qcomp=0.60 / qpmin=0 / qpmax=69 / qpstep=4 / vbv_maxrate=62500 / vbv_bufsize=78125 / crf_max=0.0 / nal_hrd=none / filler=0 / ip_ratio=1.40 / pb_ratio=1.30 / aq=1:1.00
Язык : English
Default : Да
Forced : Нет

Аудио #1
Идентификатор : 2
Формат : AC-3
Формат/Информация : Audio Coding 3
Идентификатор кодека : A_AC3
Продолжительность : 1 ч. 39 м.
Вид битрейта : Постоянный
Битрейт : 192 Кбит/сек
Каналы : 2 канала
Расположение каналов : Front: L R
Частота : 48,0 КГц
Частота кадров : 31,250 кадров/сек (1536 SPF)
Битовая глубина : 16 бит
Метод сжатия : С потерями
Размер потока : 136 Мбайт (3%)
Заголовок : MVO
Язык : Russian
ServiceKind/String : Complete Main
Default : Да
Forced : Нет

Аудио #2
Идентификатор : 3
Формат : AC-3
Формат/Информация : Audio Coding 3
Идентификатор кодека : A_AC3
Продолжительность : 1 ч. 39 м.
Вид битрейта : Постоянный
Битрейт : 192 Кбит/сек
Каналы : 2 канала
Расположение каналов : Front: L R
Частота : 48,0 КГц
Частота кадров : 31,250 кадров/сек (1536 SPF)
Битовая глубина : 16 бит
Метод сжатия : С потерями
Размер потока : 136 Мбайт (3%)
Заголовок : DVO THT
Язык : Russian
ServiceKind/String : Complete Main
Default : Нет
Forced : Нет

Аудио #3
Идентификатор : 4
Формат : AC-3
Формат/Информация : Audio Coding 3
Идентификатор кодека : A_AC3
Продолжительность : 1 ч. 39 м.
Вид битрейта : Постоянный
Битрейт : 192 Кбит/сек
Каналы : 2 канала
Расположение каналов : Front: L R
Частота : 48,0 КГц
Частота кадров : 31,250 кадров/сек (1536 SPF)
Битовая глубина : 16 бит
Метод сжатия : С потерями
Размер потока : 136 Мбайт (3%)
Заголовок : Андрей Дольский
Язык : Russian
ServiceKind/String : Complete Main
Default : Нет
Forced : Нет

Аудио #4
Идентификатор : 5
Формат : AC-3
Формат/Информация : Audio Coding 3
Идентификатор кодека : A_AC3
Продолжительность : 1 ч. 39 м.
Вид битрейта : Постоянный
Битрейт : 192 Кбит/сек
Каналы : 2 канала
Расположение каналов : Front: L R
Частота : 48,0 КГц
Частота кадров : 31,250 кадров/сек (1536 SPF)
Битовая глубина : 16 бит
Метод сжатия : С потерями
Размер потока : 136 Мбайт (3%)
Заголовок : Вартан Дохалов (вариант 1)
Язык : Russian
ServiceKind/String : Complete Main
Default : Нет
Forced : Нет

Аудио #5
Идентификатор : 6
Формат : AC-3
Формат/Информация : Audio Coding 3
Идентификатор кодека : A_AC3
Продолжительность : 1 ч. 39 м.
Вид битрейта : Постоянный
Битрейт : 192 Кбит/сек
Каналы : 2 канала
Расположение каналов : Front: L R
Частота : 48,0 КГц
Частота кадров : 31,250 кадров/сек (1536 SPF)
Битовая глубина : 16 бит
Метод сжатия : С потерями
Размер потока : 136 Мбайт (3%)
Заголовок : Вартан Дохалов (вариант 2)
Язык : Russian
ServiceKind/String : Complete Main
Default : Нет
Forced : Нет

Аудио #6
Идентификатор : 7
Формат : AC-3
Формат/Информация : Audio Coding 3
Идентификатор кодека : A_AC3
Продолжительность : 1 ч. 39 м.
Вид битрейта : Постоянный
Битрейт : 192 Кбит/сек
Каналы : 2 канала
Расположение каналов : Front: L R
Частота : 48,0 КГц
Частота кадров : 31,250 кадров/сек (1536 SPF)
Битовая глубина : 16 бит
Метод сжатия : С потерями
Размер потока : 136 Мбайт (3%)
Заголовок : Юрий Живов
Язык : Russian
ServiceKind/String : Complete Main
Default : Нет
Forced : Нет

Аудио #7
Идентификатор : 8
Формат : AC-3
Формат/Информация : Audio Coding 3
Идентификатор кодека : A_AC3
Продолжительность : 1 ч. 39 м.
Вид битрейта : Постоянный
Битрейт : 192 Кбит/сек
Каналы : 2 канала
Расположение каналов : Front: L R
Частота : 48,0 КГц
Частота кадров : 31,250 кадров/сек (1536 SPF)
Битовая глубина : 16 бит
Метод сжатия : С потерями
Размер потока : 136 Мбайт (3%)
Заголовок : Алексей Михалёв
Язык : Russian
ServiceKind/String : Complete Main
Default : Нет
Forced : Нет

Аудио #8
Идентификатор : 9
Формат : AC-3
Формат/Информация : Audio Coding 3
Идентификатор кодека : A_AC3
Продолжительность : 1 ч. 39 м.
Вид битрейта : Постоянный
Битрейт : 192 Кбит/сек
Каналы : 2 канала
Расположение каналов : Front: L R
Частота : 48,0 КГц
Частота кадров : 31,250 кадров/сек (1536 SPF)
Битовая глубина : 16 бит
Метод сжатия : С потерями
Размер потока : 136 Мбайт (3%)
Заголовок : original
Язык : English
ServiceKind/String : Complete Main
Default : Нет
Forced : Нет

Текст #1
Идентификатор : 10
Формат : UTF-8
Идентификатор кодека : S_TEXT/UTF8
Идентификатор кодека/Информация : UTF-8 Plain Text
Продолжительность : 1 ч. 34 м.
Битрейт : 117 бит/сек
ElementCount : 1372
Размер потока : 80,9 Кбайт (0%)
Заголовок : русские
Язык : Russian
Default : Нет
Forced : Нет

Текст #2
Идентификатор : 11
Формат : UTF-8
Идентификатор кодека : S_TEXT/UTF8
Идентификатор кодека/Информация : UTF-8 Plain Text
Продолжительность : 1 ч. 34 м.
Битрейт : 86 бит/сек
ElementCount : 1378
Размер потока : 59,8 Кбайт (0%)
Заголовок : английские
Язык : English
Default : Нет
Forced : Нет

Меню
00:00:00.000 : :Chapter 01
00:06:15.583 : :Chapter 02
00:11:54.004 : :Chapter 03
00:21:29.621 : :Chapter 04
00:28:08.728 : :Chapter 05
00:34:33.988 : :Chapter 06
00:46:19.693 : :Chapter 07
00:50:22.978 : :Chapter 08
01:01:18.508 : :Chapter 09
01:11:44.133 : :Chapter 10
01:20:09.179 : :Chapter 11
01:32:42.932 : :Chapter 12
01:38:24.481 : :Chapter 13
pb.wtf



Скачать Уик-энд у Берни через торрент https://c.radikal.ru/c37/1802/fd/d6cfa99b866b.jpg Скачать фильм Уик-энд у Берни через торрент бесплантно в хорошем качестве О фильме: Двое молодых работников страховой компании обнаруживают в бухгалтерских книгах, что кто-то четыре раза получает деньги по ... 10 10 4
Info! Золотая раздача, скачанное не засчитывается.
Торрент: Зарегистрирован [2018-02-07 05:46] · скачан: 60 раз
Статус: √ проверено
Размер: 4.92 GB
Как cкачать? Как скачать Уик-энд у Берни через торрент | qTorrent

28-11-2019 20:33  

Отключить всю рекламу на сайте

    Дорогой пользователь! Огромная просьба, поблагодарите релизера, оцените раздачу и оставьте свои комментарий, если Вы скачали Уик-энд у Берни через торрент бесплатно! Внесите свою лепту в развитие PiratBit!
    Комментировать посты могут только пользователи прошедшие не сложную регистрацию
    Показать сообщения:    

    Уик-энд у Берни через торрент
    Скачать бесплатно Уик-энд у Берни
    Уик-энд у Берни скачать торрент
    Уик-энд у Берни смотреть онлайн
    Cкачать фильм Уик-энд у Берни бесплатно
    Уик-энд у Берни скачать торрент в хорошем качестве
    Уик-энд у Берни смотреть онлайн бесплатно в хорошем качестве


    Вы не можете начинать темы
    Вы не можете отвечать на сообщения
    Вы не можете редактировать свои сообщения
    Вы не можете удалять свои сообщения
    Вы не можете голосовать в опросах
    Вы не можете прикреплять файлы к сообщениям
    Вы можете скачивать файлы