Ссылка на приватное зеркало нашего сайта всего за 1$. Внимание количество ограничено!!!

2 сезон

iTunes

1 сезон

1

iTunes

iTunes

iTunes

1 сезон

RePack

30

ИГРА 18+

pack

ВАЖНО

!!Акция!!

Alien_RageХит недели

RePack

MK11
pack

Забери бонус

RePack

jed

!!Акция!!

Alien_Rage

RePack

fifa19

RePack

Assassins Creed: Odyssey

RePack

NEED FOR SPEED™ PAYBACK

4 сезон

9 сезон

Бесстыжие 9 сезон

Все сериалы

все сериалы на PB.wtf

RePack

FAR CRY 5
  

Клуб "Завтрак" / The Breakfast Club (Джон Хьюз) [1985, драма, BDRip 720p by msltel] 2 x MVO, 3 x AVO pb.wtf

Клуб "Завтрак" через торрент pb.wtf

Размер: 5.59 GB | Добавлен: 2 года 8 мес. назад | Торрент скачан:14 раз
Скачать  

07-02-2018 10:02 Клуб "Завтрак" Скачать торрент  

Название: Клуб "Завтрак"
Оригинальное название: The Breakfast Club
Год выпуска: 1985
Страна: США
Жанр: драма
Продолжительность: 01:36:57
Перевод: профессиональный многоголосый, авторский
Режиссер: Джон Хьюз
В ролях: Джон Капелос, Энтони Майкл Холл, Элли Шиди, Рон Дин, Джадд Нельсон, Молли Рингуолд, Эмилио Эстевез, Пол Глисон, Перри Кроуфорд, Мэри Кристиан

О фильме: Пятеро школьников в наказание за проступки вынуждены приехать в школу в выходной день и написать сочинение «Кем вы себя представляете?». Молодым людям с большим трудом удаётся разобраться в своих проблемах...



Качество: BDRip 720p
Формат: MKV
Видео: MPEG-4 AVC, 5823 Kбит/с, 1280x694
Аудио 1: русский, AC3, 448 kbps, 2 ch, 48 kHz [закадровый многоголосый, Blu-ray CEE]
Аудио 2: русский, AC3, 448 kbps, 6 ch, 48 kHz [закадровый многоголосый, CTC]
Аудио 3: русский, AC3, 192 kbps, 2 ch, 48 kHz [авторский, Андрей Дольский]
Аудио 4: русский, AC3, 448 kbps, 6 ch, 48 kHz [авторский, Юрий Живов]
Аудио 5: русский, AC3, 448 kbps, 6 ch, 48 kHz [авторский, Михаил Яроцкий]
Аудио 6: английский, AC3, 448 kbps, 6 ch, 48 kHz [оригинал]
Субтитры 1: русские
Субтитры 2: английские
Неименованные главы/чаптеры.
Общее
Уникальный идентификатор : 194245653176170974917409733677226929552 (0x92225A1CCBFC12A1A03B0BDB13942D90)
Полное имя : D:\Video\Клуб Завтрак.1985.BDRip.720p by msltel.mkv
Формат : Matroska
Версия формата : Version 4 / Version 2
Размер файла : 5,59 Гбайт
Продолжительность : 1 ч. 36 м.
Общий поток : 8258 Кбит/сек
Название фильма : Rip by msltel
Дата кодирования : UTC 2018-02-07 02:55:23
Программа кодирования : mkvmerge v8.2.0 ('World of Adventure') 64bit
Библиотека кодирования : libebml v1.3.1 + libmatroska v1.4.2

Видео
Идентификатор : 1
Формат : AVC
Формат/Информация : Advanced Video Codec
Профиль формата : High@L4.1
Настройки формата : CABAC / 9 Ref Frames
Параметр CABAC формата : Да
Параметр RefFrames формата : 9 кадров
Идентификатор кодека : V_MPEG4/ISO/AVC
Продолжительность : 1 ч. 36 м.
Битрейт : 5823 Кбит/сек
Ширина : 1280 пикселей
Высота : 694 пикселя
Соотношение сторон : 1,85:1
Режим частоты кадров : Постоянный
Частота кадров : 23,976 (24000/1001) кадра/сек
Цветовое пространство : YUV
Субдискретизация насыщенности : 4:2:0
Битовая глубина : 8 бит
Тип развёртки : Прогрессивная
Бит/(Пиксели*Кадры) : 0.273
Размер потока : 3,94 Гбайт (71%)
Библиотека кодирования : x264 core 146 r2538 121396c
Настройки программы : cabac=1 / ref=9 / deblock=1:-3:-2 / analyse=0x3:0x113 / me=umh / subme=11 / psy=1 / psy_rd=1.00:0.15 / mixed_ref=1 / me_range=32 / chroma_me=1 / trellis=2 / 8x8dct=1 / cqm=0 / deadzone=21,11 / fast_pskip=0 / chroma_qp_offset=-3 / threads=6 / lookahead_threads=1 / sliced_threads=0 / nr=0 / decimate=1 / interlaced=0 / bluray_compat=0 / constrained_intra=0 / bframes=7 / b_pyramid=2 / b_adapt=2 / b_bias=0 / direct=1 / weightb=1 / open_gop=0 / weightp=2 / keyint=230 / keyint_min=23 / scenecut=40 / intra_refresh=0 / rc_lookahead=40 / rc=crf / mbtree=0 / crf=19.3 / qcomp=0.60 / qpmin=0 / qpmax=69 / qpstep=4 / vbv_maxrate=62500 / vbv_bufsize=78125 / crf_max=0.0 / nal_hrd=none / filler=0 / ip_ratio=1.40 / pb_ratio=1.30 / aq=1:1.00
Язык : English
Default : Да
Forced : Нет

Аудио #1
Идентификатор : 2
Формат : AC-3
Формат/Информация : Audio Coding 3
Идентификатор кодека : A_AC3
Продолжительность : 1 ч. 36 м.
Вид битрейта : Постоянный
Битрейт : 448 Кбит/сек
Каналы : 2 канала
Расположение каналов : Front: L R
Частота : 48,0 КГц
Частота кадров : 31,250 кадров/сек (1536 SPF)
Битовая глубина : 16 бит
Метод сжатия : С потерями
Размер потока : 311 Мбайт (5%)
Заголовок : MVO Blu-ray CEE
Язык : Russian
ServiceKind/String : Complete Main
Default : Да
Forced : Нет

Аудио #2
Идентификатор : 3
Формат : AC-3
Формат/Информация : Audio Coding 3
Идентификатор кодека : A_AC3
Продолжительность : 1 ч. 36 м.
Вид битрейта : Постоянный
Битрейт : 448 Кбит/сек
Каналы : 6 каналов
Расположение каналов : Front: L C R, Side: L R, LFE
Частота : 48,0 КГц
Частота кадров : 31,250 кадров/сек (1536 SPF)
Битовая глубина : 16 бит
Метод сжатия : С потерями
Размер потока : 311 Мбайт (5%)
Заголовок : MVO CTC
Язык : Russian
ServiceKind/String : Complete Main
Default : Нет
Forced : Нет

Аудио #3
Идентификатор : 4
Формат : AC-3
Формат/Информация : Audio Coding 3
Идентификатор кодека : A_AC3
Продолжительность : 1 ч. 36 м.
Вид битрейта : Постоянный
Битрейт : 192 Кбит/сек
Каналы : 2 канала
Расположение каналов : Front: L R
Частота : 48,0 КГц
Частота кадров : 31,250 кадров/сек (1536 SPF)
Битовая глубина : 16 бит
Метод сжатия : С потерями
Размер потока : 133 Мбайт (2%)
Заголовок : Андрей Дольский
Язык : Russian
ServiceKind/String : Complete Main
Default : Нет
Forced : Нет

Аудио #4
Идентификатор : 5
Формат : AC-3
Формат/Информация : Audio Coding 3
Идентификатор кодека : A_AC3
Продолжительность : 1 ч. 36 м.
Вид битрейта : Постоянный
Битрейт : 448 Кбит/сек
Каналы : 6 каналов
Расположение каналов : Front: L C R, Side: L R, LFE
Частота : 48,0 КГц
Частота кадров : 31,250 кадров/сек (1536 SPF)
Битовая глубина : 16 бит
Метод сжатия : С потерями
Размер потока : 311 Мбайт (5%)
Заголовок : Юрий Живов
Язык : Russian
ServiceKind/String : Complete Main
Default : Нет
Forced : Нет

Аудио #5
Идентификатор : 6
Формат : AC-3
Формат/Информация : Audio Coding 3
Идентификатор кодека : A_AC3
Продолжительность : 1 ч. 36 м.
Вид битрейта : Постоянный
Битрейт : 448 Кбит/сек
Каналы : 6 каналов
Расположение каналов : Front: L C R, Side: L R, LFE
Частота : 48,0 КГц
Частота кадров : 31,250 кадров/сек (1536 SPF)
Битовая глубина : 16 бит
Метод сжатия : С потерями
Размер потока : 311 Мбайт (5%)
Заголовок : Михаил Яроцкий
Язык : Russian
ServiceKind/String : Complete Main
Default : Нет
Forced : Нет

Аудио #6
Идентификатор : 7
Формат : AC-3
Формат/Информация : Audio Coding 3
Идентификатор кодека : A_AC3
Продолжительность : 1 ч. 36 м.
Вид битрейта : Постоянный
Битрейт : 448 Кбит/сек
Каналы : 6 каналов
Расположение каналов : Front: L C R, Side: L R, LFE
Частота : 48,0 КГц
Частота кадров : 31,250 кадров/сек (1536 SPF)
Битовая глубина : 16 бит
Метод сжатия : С потерями
Размер потока : 311 Мбайт (5%)
Заголовок : original
Язык : English
ServiceKind/String : Complete Main
Default : Нет
Forced : Нет

Текст #1
Идентификатор : 8
Формат : UTF-8
Идентификатор кодека : S_TEXT/UTF8
Идентификатор кодека/Информация : UTF-8 Plain Text
Продолжительность : 1 ч. 34 м.
Битрейт : 84 бит/сек
ElementCount : 1101
Размер потока : 58,5 Кбайт (0%)
Заголовок : русские
Язык : Russian
Default : Нет
Forced : Нет

Текст #2
Идентификатор : 9
Формат : UTF-8
Идентификатор кодека : S_TEXT/UTF8
Идентификатор кодека/Информация : UTF-8 Plain Text
Продолжительность : 1 ч. 36 м.
Битрейт : 77 бит/сек
ElementCount : 1303
Размер потока : 54,6 Кбайт (0%)
Заголовок : английские
Язык : English
Default : Нет
Forced : Нет

Меню
00:00:00.000 : :Chapter 01
00:02:05.290 : :Chapter 02
00:05:48.848 : :Chapter 03
00:15:26.299 : :Chapter 04
00:21:06.515 : :Chapter 05
00:22:57.791 : :Chapter 06
00:30:15.814 : :Chapter 07
00:31:39.439 : :Chapter 08
00:37:04.930 : :Chapter 09
00:43:20.305 : :Chapter 10
00:50:00.453 : :Chapter 11
00:51:45.143 : :Chapter 12
00:55:43.671 : :Chapter 13
00:58:01.603 : :Chapter 14
01:06:34.532 : :Chapter 15
01:26:12.917 : :Chapter 16
01:32:12.234 : :Chapter 17
01:34:55.729 : :Chapter 18
01:36:57.394 : :Chapter 19
pb.wtf



Скачать Клуб "Завтрак" через торрент https://c.radikal.ru/c42/1802/cf/6a23a74f33bd.jpg Скачать фильм Клуб "Завтрак" через торрент бесплантно в хорошем качестве О фильме: Пятеро школьников в наказание за проступки вынуждены приехать в школу в выходной день и написать сочинение «Кем вы себя ... 5.5 10 2
Info! Золотая раздача, скачанное не засчитывается.
Торрент: Зарегистрирован [2018-02-07 10:02] · скачан: 14 раз
Статус: √ проверено
Размер: 5.59 GB
Как cкачать? Как скачать Клуб "Завтрак" через торрент | qTorrent

28-11-2019 20:33  

Отключить всю рекламу на сайте

    Дорогой пользователь! Огромная просьба, поблагодарите релизера, оцените раздачу и оставьте свои комментарий, если Вы скачали Клуб "Завтрак" через торрент бесплатно! Внесите свою лепту в развитие PiratBit!
    Комментировать посты могут только пользователи прошедшие не сложную регистрацию
    Показать сообщения:    

    Клуб "Завтрак" через торрент
    Скачать бесплатно Клуб "Завтрак"
    Клуб "Завтрак" скачать торрент
    Клуб "Завтрак" смотреть онлайн
    Cкачать фильм Клуб "Завтрак" бесплатно
    Клуб "Завтрак" скачать торрент в хорошем качестве
    Клуб "Завтрак" смотреть онлайн бесплатно в хорошем качестве


    Вы не можете начинать темы
    Вы не можете отвечать на сообщения
    Вы не можете редактировать свои сообщения
    Вы не можете удалять свои сообщения
    Вы не можете голосовать в опросах
    Вы не можете прикреплять файлы к сообщениям
    Вы можете скачивать файлы