Ссылка на приватное зеркало всего за 1$. Внимание количество ограничено!!!

OK

1+1

iTunes

мы

OK

1

WEB-DLRip

Джокер

Пифагор

Ведьмак / The Witcher сериал

Лицензия

ПШазам

ОК

Оно 2

iTunes

30
pack

Вам бонус

ВАЖНО

!!Акция!!

Alien_RageХит недели

RePack

Resident Evil 21

ИГРА 18+

pack

RePack

jed

RePack

fifa19

RePack

Assassins Creed: Odyssey

RePack

NEED FOR SPEED™ PAYBACK

4 сезон

9 сезон

Бесстыжие 9 сезон

Все сериалы

все сериалы на PB.wtf

RePack

FAR CRY 5
  

Это – ваша смерть / This Is Your Death (Джанкарло Эспозито) [2017, драма, BDRip 720p] MVO [Синема УС] pb.wtf

Это – ваша смерть через торрент pb.wtf

Размер: 4.35 GB | Добавлен: 1 год 11 мес. назад | Торрент скачан:29 раз
Скачать  

07-02-2018 11:53 Это – ваша смерть Скачать торрент  

Это – ваша смерть / This Is Your DeathГод выпуска: 2017
Страна: США
Жанр: драма
Продолжительность: 01:47:03
Перевод: Любительский (многоголосый) | Синема УС
Субтитры: отсутствуют

Режиссер: Джанкарло Эспозито

rating

В ролях:

Фамке Янссен, Джош Дюамель, Сара Уэйн Кэллис, Джанкарло Эспозито, Кэйтлин Фицджералд, Чела Хорсдэл, Крис Эллис, Джиллз Пэнтон

Описание:

На телевидении запустился новый проект, который тут же взорвал эфир — реалити-шоу, где люди умирают вполне реальной, не экранной смертью. Каждый участник шоу добровольно идёт на все испытания, несмотря на то, что совершенно чётко понимает: он может не дожить до следующего эпизода. Рейтинг телепередачи растёт, желающих участвовать становится всё больше...

Качество: BDRip 720p
Формат: MKV
Видео кодек: H.264
Аудио кодек: AC3

Видео: 5414 Кбит/с, 1280x692
Аудио#1: Русский, (AC3, 2 ch, 448 Кбит/с)

скриншот  скриншот  скриншот  

Общее
Уникальный идентификатор : 222294430410360017663767159099279483063 (0xA73C599995EFFB879ECAE116A35F20B7)
Полное имя : D:\The.Show.2017.P.BDRip.72Op_KOSHARA.mkv
Формат : Matroska
Версия формата : Version 2
Размер файла : 4,35 Гбайт
Продолжительность : 1 ч. 46 м.
Режим общего битрейта : Переменный
Общий поток : 5864 Кбит/сек
Дата кодирования : UTC 2017-11-02 14:56:33
Программа кодирования : mkvmerge v8.3.0 ('Over the Horizon') 64bit
Библиотека кодирования : libebml v1.3.1 + libmatroska v1.4.2

Видео
Идентификатор : 1
Формат : AVC
Формат/Информация : Advanced Video Codec
Профиль формата : High@L4.1
Параметр CABAC формата : Да
Параметр ReFrames формата : 9 кадров
Идентификатор кодека : V_MPEG4/ISO/AVC
Продолжительность : 1 ч. 46 м.
Вид битрейта : Переменный
Битрейт : 5414 Кбит/сек
Максимальный битрейт : 6000 Кбит/сек
Ширина : 1280 пикселей
Высота : 692 пикселя
Соотношение сторон : 1,85:1
Режим частоты кадров : Постоянный
Частота кадров : 23,976 (24000/1001) кадра/сек
Стандарт вещания : Component
Цветовое пространство : YUV
Субдискретизация насыщенности : 4:2:0
Битовая глубина : 8 бит
Тип развёртки : Прогрессивная
Бит/(Пиксели*Кадры) : 0.250
Размер потока : 3,93 Гбайт (90%)
Default : Да
Forced : Нет
Цветовой диапазон : Limited
Основные цвета : BT.709
Характеристики трансфера : BT.709
Коэффициенты матрицы : BT.709

Аудио
Идентификатор : 2
Формат : AC-3
Формат/Информация : Audio Coding 3
Расширение режима : CM (complete main)
Параметр Endianness формата : Big
Идентификатор кодека : A_AC3
Продолжительность : 1 ч. 46 м.
Вид битрейта : Постоянный
Битрейт : 448 Кбит/сек
Каналы : 2 канала
Расположение каналов : Front: L R
Частота : 48,0 КГц
Частота кадров : 31,250 кадров/сек (1536 spf)
Метод сжатия : С потерями
Размер потока : 341 Мбайт (8%)
Default : Да
Forced : Нет

pb.wtf



Скачать Это – ваша смерть через торрент http://img10.lostpic.net/2017/09/19/008a5bc4c281a4ecec80c33442680235.png Скачать фильм Это – ваша смерть через торрент бесплантно в хорошем качестве Описание: На телевидении запустился новый проект, который тут же взорвал эфир — реалити-шоу, где люди умирают вполне реальной, не экранной ... 8.2 10 5
Торрент: Зарегистрирован [2018-02-07 11:53] · скачан: 29 раз
Статус: # сомнительно
Размер: 4.35 GB
Как cкачать? Как скачать Это – ваша смерть через торрент | qTorrent

% Раздел Тема Автор DL S | L
T Фильмы (мультфильмы) cо спонсором показа (Новинки AVI/MKV) [ 1.46 GB ] Это – ваша смерть / This Is Your Death [2017 HDRip] MVO [Синема УС] bober100 Скачать
1 | 0
# Фильмы (мультфильмы) cо спонсором показа (Новинки AVI/MKV) [ 8.34 GB ] Это – ваша смерть / This Is Your Death [2017 BDRip 1080p] MVO [Синема УС] bober100 Скачать
1 | 0

28-11-2019 20:33  

Отключить всю рекламу на сайте


    Дорогой пользователь! Огромная просьба, поблагодарите релизера, оцените раздачу и оставьте свои комментарий, если Вы скачали Это – ваша смерть через торрент бесплатно! Внесите свою лепту в развитие PiratBit!
    Комментировать посты могут только пользователи прошедшие не сложную регистрацию
    Показать сообщения:    

    Это – ваша смерть через торрент
    Скачать бесплатно Это – ваша смерть
    Это – ваша смерть скачать торрент
    Это – ваша смерть смотреть онлайн
    Cкачать фильм Это – ваша смерть бесплатно
    Это – ваша смерть скачать торрент в хорошем качестве
    Это – ваша смерть смотреть онлайн бесплатно в хорошем качестве


    Вы не можете начинать темы
    Вы не можете отвечать на сообщения
    Вы не можете редактировать свои сообщения
    Вы не можете удалять свои сообщения
    Вы не можете голосовать в опросах
    Вы не можете прикреплять файлы к сообщениям
    Вы можете скачивать файлы