Marvel's Avengers Deluxe Edition (супер цена) 159р. Внимание количество ограничено!!!

2 сезон

iTunes

iTunes

1

iTunes

iTunes

iTunes

WEBRip

iTunes

30
pack

Новость дня

ВАЖНО

!!Акция!!

Alien_RageХит недели

RePack

Horizon Zero Dawn

ИГРА 18+

pack

RePack

jed

!!Акция!!

Alien_Rage

RePack

fifa19

RePack

Assassins Creed: Odyssey

RePack

NEED FOR SPEED™ PAYBACK

4 сезон

9 сезон

Бесстыжие 9 сезон

Все сериалы

все сериалы на PB.wtf

RePack

FAR CRY 5
  

Кэт убивает / Cats Kill (Грегоре Казино) [2017, триллер, WEB-DL 720p] MVO ["Синема УС"] pb.wtf

Кэт убивает через торрент pb.wtf

Размер: 2.54 GB | Добавлен: 2 года 7 мес. назад | Торрент скачан:23 раза
Скачать  

07-02-2018 17:54 Кэт убивает Скачать торрент  

Кэт убивает / Cats KillГод выпуска: 2017
Страна: США
Жанр: триллер
Продолжительность: 01:08:36
Перевод: Любительский (многоголосый) ["Синема УС"]
Субтитры: отсутствуют

Режиссер: Грегоре Казино

rating

В ролях:

Аланах Рафферти, Кей Лорен, Кейси Блэк, Бекка К. Ко, Кит Ковари, Дэн О'Коннор, Уилл Скарлетт

Описание:

Кассирше на заправке наскучила ее деревенская жизнь. Вдохновившись фильмами ужасов, она решает убивать ненавистных ей городских туристов.

Качество: WEB-DL 720p
Формат: MKV
Видео кодек: H.264
Аудио кодек: AC3

Видео: 4904 Кбит/с, 1280x534
Аудио#1: AC3, 2 ch, 384 Кбит/с

скриншот  скриншот  скриншот  

Общее
Уникальный идентификатор : 187360127855641549629596370687875126969 (0x8CF43F81001B2919993BF51C8C1496B9)
Полное имя : D:\Cats.Kill.2017.P.WEB-DL.72Op_KOSHARA.mkv
Формат : Matroska
Версия формата : Version 2
Размер файла : 2,54 Гбайт
Продолжительность : 1 ч. 8 м.
Режим общего битрейта : Переменный
Общий поток : 5290 Кбит/сек
Дата кодирования : UTC 2018-02-07 03:21:48
Программа кодирования : mkvmerge v8.3.0 ('Over the Horizon') 64bit
Библиотека кодирования : libebml v1.3.1 + libmatroska v1.4.2

Видео
Идентификатор : 1
Формат : AVC
Формат/Информация : Advanced Video Codec
Профиль формата : High@L4.1
Параметр CABAC формата : Да
Параметр ReFrames формата : 4 кадра
Идентификатор кодека : V_MPEG4/ISO/AVC
Продолжительность : 1 ч. 8 м.
Вид битрейта : Переменный
Битрейт : 4904 Кбит/сек
Максимальный битрейт : 6000 Кбит/сек
Ширина : 1280 пикселей
Высота : 534 пикселя
Соотношение сторон : 2,40:1
Режим частоты кадров : Постоянный
Частота кадров : 23,976 (24000/1001) кадра/сек
Стандарт вещания : Component
Цветовое пространство : YUV
Субдискретизация насыщенности : 4:2:0
Битовая глубина : 8 бит
Тип развёртки : Прогрессивная
Бит/(Пиксели*Кадры) : 0.293
Размер потока : 2,30 Гбайт (91%)
Default : Да
Forced : Нет
Цветовой диапазон : Limited
Основные цвета : BT.709
Характеристики трансфера : BT.709
Коэффициенты матрицы : BT.709

Аудио
Идентификатор : 2
Формат : AC-3
Формат/Информация : Audio Coding 3
Расширение режима : CM (complete main)
Параметр Endianness формата : Big
Идентификатор кодека : A_AC3
Продолжительность : 1 ч. 8 м.
Вид битрейта : Постоянный
Битрейт : 384 Кбит/сек
Каналы : 2 канала
Расположение каналов : Front: L R
Частота : 32,0 КГц
Частота кадров : 20,833 кадров/сек (1536 spf)
Метод сжатия : С потерями
Размер потока : 188 Мбайт (7%)
Default : Да
Forced : Нет

pb.wtf



Скачать Кэт убивает через торрент http://img12.lostpic.net/2018/02/07/aac36601f0553f44fff73d749343335d.jpg Скачать фильм Кэт убивает через торрент бесплантно в хорошем качестве Описание: Кассирше на заправке наскучила ее деревенская жизнь. Вдохновившись фильмами ужасов, она решает убивать ненавистных ей городских ... 7 10 3
Торрент: Зарегистрирован [2018-02-07 17:54] · скачан: 23 раз
Статус: T временная
Размер: 2.54 GB
Как cкачать? Как скачать Кэт убивает через торрент | qTorrent

% Раздел Тема Автор DL S | L
T Фильмы (мультфильмы) cо спонсором показа (Новинки AVI/MKV) [ 1.37 GB ] Кэт убивает / Cats Kill [2017 WEB-DLRip] MVO ["Синема УС"] bober100 Скачать
1 | 0

28-11-2019 20:33  

Отключить всю рекламу на сайте

    Дорогой пользователь! Огромная просьба, поблагодарите релизера, оцените раздачу и оставьте свои комментарий, если Вы скачали Кэт убивает через торрент бесплатно! Внесите свою лепту в развитие PiratBit!
    Комментировать посты могут только пользователи прошедшие не сложную регистрацию
    Показать сообщения:    

    Кэт убивает через торрент
    Скачать бесплатно Кэт убивает
    Кэт убивает скачать торрент
    Кэт убивает смотреть онлайн
    Cкачать фильм Кэт убивает бесплатно
    Кэт убивает скачать торрент в хорошем качестве
    Кэт убивает смотреть онлайн бесплатно в хорошем качестве


    Вы не можете начинать темы
    Вы не можете отвечать на сообщения
    Вы не можете редактировать свои сообщения
    Вы не можете удалять свои сообщения
    Вы не можете голосовать в опросах
    Вы не можете прикреплять файлы к сообщениям
    Вы можете скачивать файлы