Ссылка на приватное зеркало нашего сайта всего за 1$. Внимание количество ограничено!!!

2 сезон

iTunes

1 сезон

1

2 сезон

2 сезон

iTunes

1 сезон

RePack

30

Новинка

ВАЖНО

ИГРА 18+

pack

RePack

MK11
pack

Забери бонус

RePack

jed

!!Акция!!

Alien_Rage

RePack

fifa19

RePack

Assassins Creed: Odyssey

RePack

NEED FOR SPEED™ PAYBACK

4 сезон

9 сезон

Бесстыжие 9 сезон

Все сериалы

все сериалы на PB.wtf

RePack

FAR CRY 5
  

Курс Биологии / A.P. Bio / Сезон: 1 / Серии: 1-13 из 13 (Османи Родригез, Райан Кейс) [2018, комедия, WEBRip] MVO [Jaskier] pb.wtf

Курс Биологии через торрент pb.wtf

Размер: 3.18 GB | Добавлен: 2 года 6 мес. назад | Торрент скачан:23 раза
Скачать  

07-02-2018 20:56 Курс Биологии Скачать торрент  

Курс Биологии / A.P. BioГод выпуска: 2018
Страна: США
Жанр: комедия
Продолжительность: ~ 00:25:00
Перевод: Профессиональный (многоголосый) | Jaskier
Субтитры: отсутствуют

Режиссер: Османи Родригез, Райан Кейс

rating

В ролях:

Гленн Хоуертон, Лайрик Льюис, Мэри Сон, Апарна Бриэль, Ник Пейн, Пэттон Освальт, Такер Албрицци, Эллисин Эшли Арм, Джейкоб Хьюстон

Описание:

Сериал повествует о профессоре философии Джеке (Гленн Хоуертон), который безмерно обожает свою работу. Однако, утратив место своей мечты, Джек перестаёт трудиться в качестве профессора, и вынужден изменить сферу деятельности. Теперь он — учитель биологии в высшей школе. Но Джек дал всем ясно понять, что профессия учителя не является приоритетной для него, и он не стремится обучать детей в высшей школе какой-то биологии. Понимая, что в его распоряжении есть класс, который полон учеников, славящихся прекрасными знаниями и занимающих почётные места, учитель решает использовать школьников в личных целях.

Качество: WEBRip
Формат: AVI

Видео: ~ 1400 kbps, 720x400, 23.976 fps
Аудио#1: Rus: mp3, 48 KHz, 2 ch, 128 kbps
Аудио#2: Eng: mp3, 48 KHz, 2 ch, 128 kbps
скриншот   скриншот   скриншот  

Общее
Полное имя : D:\A P Bio. Season 1 (WEB-DLRip l 400p l Jaskier)\A.P.Bio.S01E01.WEB-DLRip.Rus.Eng.Jaskier.avi
Формат : AVI
Формат/Информация : Audio Video Interleave
Размер файла : 251 Мбайт
Продолжительность : 21 м. 31 с.
Общий поток : 1628 Кбит/сек
Программа кодирования : VirtualDubMod 1.5.10.3 | www.virtualdub-fr.org || (build 2550/release)
Библиотека кодирования : VirtualDubMod build 2550/release

Видео
Идентификатор : 0
Формат : MPEG-4 Visual
Профиль формата : Advanced Simple@L5
Параметр BVOP формата : 1
Параметр QPel формата : Нет
Параметр GMC формата : Без точки перехода
Параметр матрицы формата : Default (MPEG)
Идентификатор кодека : XVID
Идентификатор кодека/Подсказка : XviD
Продолжительность : 21 м. 31 с.
Битрейт : 1358 Кбит/сек
Ширина : 720 пикселей
Высота : 400 пикселей
Соотношение сторон : 16:9
Частота кадров : 23,976 (23976/1000) кадра/сек
Цветовое пространство : YUV
Субдискретизация насыщенности : 4:2:0
Битовая глубина : 8 бит
Тип развёртки : Прогрессивная
Метод сжатия : С потерями
Бит/(Пиксели*Кадры) : 0.197
Размер потока : 209 Мбайт (83%)
Библиотека кодирования : XviD 73

Аудио #1
Идентификатор : 1
Формат : MPEG Audio
Версия формата : Version 1
Профиль формата : Layer 3
Режим : Joint stereo
Расширение режима : MS Stereo
Идентификатор кодека : 55
Идентификатор кодека/Подсказка : MP3
Продолжительность : 21 м. 31 с.
Вид битрейта : Постоянный
Битрейт : 128 Кбит/сек
Каналы : 2 канала
Частота : 48,0 КГц
Метод сжатия : С потерями
Размер потока : 19,7 Мбайт (8%)
Выравнивание : Соединение по промежуткам
Продолжительность промежутка : 42 мс. (1,00 видеокадр)
Время предзагрузки промежутка : 504 мс.

Аудио #2
Идентификатор : 2
Формат : MPEG Audio
Версия формата : Version 1
Профиль формата : Layer 3
Режим : Joint stereo
Расширение режима : MS Stereo
Идентификатор кодека : 55
Идентификатор кодека/Подсказка : MP3
Продолжительность : 21 м. 31 с.
Вид битрейта : Постоянный
Битрейт : 128 Кбит/сек
Каналы : 2 канала
Частота : 48,0 КГц
Метод сжатия : С потерями
Размер потока : 19,7 Мбайт (8%)
Выравнивание : Соединение по промежуткам
Продолжительность промежутка : 42 мс. (1,00 видеокадр)
Время предзагрузки промежутка : 504 мс.

Когда раздача ведётся путём добавления новых серий, при каждом добавлении создётся новый торрент. Чтобы начать докачку новой серии, пользователям необходимо сделать следующее:
(1) остановить скачивание,
(2) удалить старый торрент у себя из клиента (старые серии удалять не надо),
(3) скачать новый торрент и запустить его у себя в клиенте вместо старого, при этом указать клиенту путь в старую папку, куда и должно происходить скачивание новых серий.
Ваш клиент при этом должен произвести хеширование (проверку) старой папки (если не производит сам - помогите ему сделать это), и будет докачивать только те серии, которых у вас ещё нет. Старые серии при этом не удаляются, а продолжают раздаваться!
Eсли вы уже удалили старые серии, то предотвратить повторную закачку старых серий можно, отжав галочку в соответсвующих местах при запуске нового торрента. По возможности, желательно не удалять старые серии как можно дольше, чтобы релизёр не столько продолжал раздавать старые серии, а смог сконцентрироваться на новых.
pb.wtf



Скачать Курс Биологии через торрент http://i103.fastpic.ru/big/2018/0207/55/1527067260ad783b7ef3914893ac3555.png Скачать фильм Курс Биологии через торрент бесплантно в хорошем качестве Описание: Сериал повествует о профессоре философии Джеке (Гленн Хоуертон), который безмерно обожает свою работу. Однако, утратив место ... 7.8 10 4
Торрент: Зарегистрирован [2018-05-08 11:28] · скачан: 23 раз
Статус: √ проверено
Размер: 3.18 GB
Как cкачать? Как скачать Курс Биологии через торрент | qTorrent

% Раздел Тема Автор DL S | L
Зарубежные сериалы [ 14.12 GB ] Курс Биологии / A.P. Bio / Сезон: 1 / Серии: 1-13 из 13 [2018 WEB-DL 1080p] MVO [TVShows] bober100 Скачать
1 | 0
Зарубежные сериалы [ 19.41 GB ] Курс Биологии / A.P. Bio / Сезон: 2 / Серии: 1-13 из 13 [2019 WEB-DL 1080p] MVO [TVShows] bober100 Скачать
1 | 0
Зарубежные сериалы [ 1.24 GB ] Курс Биологии / A.P. Bio / Сезон: 2 / Серии: 1- из 13 [2019 WEB-DL 1080p] MVO [Jaskier] bober100 Скачать
1 | 0
Зарубежные сериалы [ 7.16 GB ] Курс Биологии / A.P. Bio / Сезон: 2 / Серии: 1-13 из 13 [2019 WEB-DL 720p] MVO [Jaskier] bober100 Скачать
1 | 0
Зарубежные сериалы [ 3.45 GB ] Курс Биологии / A.P. Bio / Сезон: 2 / Серии: 1-13 из 13 [2019 WEB-DLRip] MVO [Jaskier] bober100 Скачать
1 | 0
Зарубежные сериалы [ 6.06 GB ] Курс Биологии / A.P. Bio / Сезон: 1 / Серии: 1-13 из 13 [2018 WEB-DL 720p] MVO [Jaskier] bober100 Скачать
1 | 0
Зарубежные сериалы [ 3.81 GB ] Курс Биологии / A.P. Bio / Сезон: 1 / Серии: 1-13 из 13 [2018 WEB-DLRip] MVO [NewStudio] bober100 Скачать
1 | 0

28-11-2019 20:33  

Отключить всю рекламу на сайте

    Дорогой пользователь! Огромная просьба, поблагодарите релизера, оцените раздачу и оставьте свои комментарий, если Вы скачали Курс Биологии через торрент бесплатно! Внесите свою лепту в развитие PiratBit!
    Комментировать посты могут только пользователи прошедшие не сложную регистрацию
    Показать сообщения:    

    Курс Биологии через торрент
    Скачать бесплатно Курс Биологии
    Курс Биологии скачать торрент
    Курс Биологии смотреть онлайн
    Cкачать фильм Курс Биологии бесплатно
    Курс Биологии скачать торрент в хорошем качестве
    Курс Биологии смотреть онлайн бесплатно в хорошем качестве


    Вы не можете начинать темы
    Вы не можете отвечать на сообщения
    Вы не можете редактировать свои сообщения
    Вы не можете удалять свои сообщения
    Вы не можете голосовать в опросах
    Вы не можете прикреплять файлы к сообщениям
    Вы можете скачивать файлы