Ссылка на приватное зеркало всего за 1$. Внимание количество ограничено!!!

OK

1+1

iTunes

мы

OK

1

WEB-DLRip

Джокер

Пифагор

Ведьмак / The Witcher сериал

Лицензия

ПШазам

ОК

Оно 2

iTunes

30
pack

Вам бонус

ВАЖНО

!!Акция!!

Alien_RageХит недели

RePack

Resident Evil 21

ИГРА 18+

pack

RePack

jed

!!Акция!!

Alien_Rage

RePack

fifa19

RePack

Assassins Creed: Odyssey

RePack

NEED FOR SPEED™ PAYBACK

4 сезон

9 сезон

Бесстыжие 9 сезон

Все сериалы

все сериалы на PB.wtf

RePack

FAR CRY 5
  

Несчастный случай / Accident Man (Джесси Джонсон) [2018, боевик, триллер, криминал, BDRip 1080p] MVO [Лицензия Blu-ray EUR] pb.wtf

Несчастный случай через торрент pb.wtf

Размер: 9 GB | Добавлен: 1 год 11 мес. назад | Торрент скачан:297 раз
Скачать  

08-02-2018 01:18 Несчастный случай Скачать торрент  

Несчастный случай / Accident Man
Год выпуска: 2018
Страна: Великобритания
Жанр: боевик, триллер, криминал
Продолжительность: 01:45:29
Перевод: Профессиональный многоголосый - [Лицензия Blu-ray EUR]
Субтитры: Русские (Полные)

Режиссер: Джесси Джонсон

rating

В ролях:

Скотт Эдкинс, Рэй Стивенсон, Эшли Грин, Дэвид Пэймер, Майкл Джей Уайт, Рэй Парк, Эми Джонстон, Перри Бенсон, Ник Моран, Росс О Хеннесси

Описание:

Майк Фэллон известен тем, что превращает все свои убийства в несчастный случай. Но его отношение к делу полностью меняется, когда умирает его бывшая девушка.

Качество: BDRip 1080p
Формат: MKV

Видео: 1920x804 (2,40:1), 23.976 fps, MPEG-4 AVC ~ 10,1 Мbps avg, 0.272 bit/pixel
Аудио#1: AC3, 48,0 kHz, 6 ch, ~640.00 kbps avg | русский | Blu-ray EUR
Аудио#2: DTS, 48,0 kHz, 6 ch, ~1509.00 kbps avg | английский | Оригинал
скриншот   скриншот   скриншот   скриншот   скриншот   скриншот  

Общее
Уникальный идентификатор : 171470148693946967338969694013611425703 (0x80FFF30B7931CA70A0AC05A64089BFA7)
Полное имя : Accident.Man.2018.1080p.Blu.Ray.x264.Rus.Eng.mkv
Формат : Matroska
Версия формата : Version 4 / Version 2
Размер файла : 9,00 Гбайт
Продолжительность : 1 ч. 45 м.
Общий поток : 12,2 Мбит/сек
Дата кодирования : UTC 2018-02-07 21:16:19
Программа кодирования : mkvmerge v9.7.1 ('Pandemonium') 64bit
Библиотека кодирования : libebml v1.3.4 + libmatroska v1.4.5

Видео
Идентификатор : 1
Формат : AVC
Формат/Информация : Advanced Video Codec
Профиль формата : High@L4.1
Настройки формата : CABAC / 4 Ref Frames
Параметр CABAC формата : Да
Параметр ReFrames формата : 4 кадра
Идентификатор кодека : V_MPEG4/ISO/AVC
Продолжительность : 1 ч. 45 м.
Битрейт : 10,1 Мбит/сек
Ширина : 1920 пикселей
Высота : 804 пикселя
Соотношение сторон : 2,40:1
Режим частоты кадров : Постоянный
Частота кадров : 23,976 (24000/1001) кадра/сек
Цветовое пространство : YUV
Субдискретизация насыщенности : 4:2:0
Битовая глубина : 8 бит
Тип развёртки : Прогрессивная
Бит/(Пиксели*Кадры) : 0.272
Размер потока : 7,42 Гбайт (82%)
Заголовок : Accident.Man.2018.1080p.Blu.Ray.x264.Rus.Eng
Библиотека кодирования : x264 core 149 r2771+45 509cceb 7mod [8-bit@all X86_64]
Настройки программы : cabac=1 / ref=4 / deblock=1:-3:-3 / analyse=0x3:0x113 / me=umh / subme=10 / psy=1 / fade_compensate=0.00 / psy_rd=0.90:0.10 / mixed_ref=1 / me_range=48 / chroma_me=1 / trellis=2 / 8x8dct=1 / cqm=0 / deadzone=21,11 / fast_pskip=0 / chroma_qp_offset=-2 / threads=12 / lookahead_threads=2 / sliced_threads=0 / nr=0 / decimate=1 / interlaced=0 / bluray_compat=0 / constrained_intra=0 / fgo=0 / bframes=8 / b_pyramid=2 / b_adapt=2 / b_bias=0 / direct=3 / weightb=1 / open_gop=0 / weightp=2 / keyint=250 / keyint_min=23 / scenecut=40 / intra_refresh=0 / rc_lookahead=40 / rc=crf / mbtree=0 / crf=21.0000 / qcomp=0.70 / qpmin=0:0:0 / qpmax=69:69:69 / qpstep=4 / vbv_maxrate=35000 / vbv_bufsize=35000 / crf_max=0.0 / nal_hrd=none / filler=0 / ip_ratio=1.40 / pb_ratio=1.30 / aq=3:1.00 / aq-sensitivity=10.00 / aq-factor=1.00:1.00:1.00 / aq2=0 / aq3=2:[0.50:0.50]:[0.50:0.50]:[0.50:0.50]:[0.50:0.50] / aq3-sensitivity=10.00 / aq3-factor=[1.00:1.00]:[1.00:1.00]:[1.00:1.00] / aq3-boundary=192:64:24
Язык : English
Default : Да
Forced : Нет
Цветовой диапазон : Limited
Коэффициенты матрицы : BT.709

Аудио #1
Идентификатор : 2
Формат : AC-3
Формат/Информация : Audio Coding 3
Идентификатор кодека : A_AC3
Продолжительность : 1 ч. 45 м.
Вид битрейта : Постоянный
Битрейт : 640 Кбит/сек
Каналы : 6 каналов
Расположение каналов : Front: L C R, Side: L R, LFE
Частота : 48,0 КГц
Частота кадров : 31,250 кадров/сек (1536 SPF)
Битовая глубина : 16 бит
Метод сжатия : С потерями
Размер потока : 483 Мбайт (5%)
Заголовок : Blu-ray EUR
Язык : Russian
Default : Да
Forced : Нет

Аудио #2
Идентификатор : 3
Формат : DTS
Формат/Информация : Digital Theater Systems
Идентификатор кодека : A_DTS
Продолжительность : 1 ч. 45 м.
Вид битрейта : Постоянный
Битрейт : 1509 Кбит/сек
Каналы : 6 каналов
Расположение каналов : Front: L C R, Side: L R, LFE
Частота : 48,0 КГц
Частота кадров : 93,750 кадра/сек (512 SPF)
Битовая глубина : 24 бит
Метод сжатия : С потерями
Размер потока : 1,11 Гбайт (12%)
Язык : English
Default : Нет
Forced : Нет

Текст
Идентификатор : 4
Формат : UTF-8
Идентификатор кодека : S_TEXT/UTF8
Идентификатор кодека/Информация : UTF-8 Plain Text
Продолжительность : 1 ч. 40 м.
Битрейт : 83 бит/сек
ElementCount : 1382
Размер потока : 61,4 Кбайт (0%)
Заголовок : Полные
Язык : Russian
Default : Да
Forced : Нет

Меню #1
00:00:00.000 : en:
00:06:02.153 : en:
00:15:28.844 : en:
00:17:56.366 : en:
00:21:30.455 : en:
00:28:05.558 : en:
00:33:13.157 : en:
00:42:36.554 : en:
00:46:16.273 : en:
00:53:10.729 : en:
00:58:43.144 : en:
01:05:58.871 : en:
01:11:50.306 : en:
01:15:08.378 : en:
01:26:46.201 : en:
01:33:46.203 : en:

Меню #2
00:00:00.000 : en:
00:06:02.153 : en:
00:15:28.844 : en:
00:17:56.366 : en:
00:21:30.455 : en:
00:28:05.558 : en:
00:33:13.157 : en:
00:42:36.554 : en:
00:46:16.273 : en:
00:53:10.729 : en:
00:58:43.144 : en:
01:05:58.871 : en:
01:11:50.306 : en:
01:15:08.378 : en:
01:26:46.201 : en:
01:33:46.203 : en:

pb.wtf



Скачать Несчастный случай через торрент http://img12.lostpic.net/2018/02/08/4133ea27c174b40e6c7c21ccd61cf8e9.jpg Скачать фильм Несчастный случай через торрент бесплантно в хорошем качестве Описание: Майк Фэллон известен тем, что превращает все свои убийства в несчастный случай. Но его отношение к делу полностью меняется, когда ... 10 10 8
Info! Золотая раздача, скачанное не засчитывается.
Торрент: Зарегистрирован [2018-02-08 01:18] · скачан: 297 раз
Статус: √ проверено
Размер: 9 GB
Как cкачать? Как скачать Несчастный случай через торрент | qTorrent

% Раздел Тема Автор DL S | L
Фильмы 2018 [DVDrip, WEB-DLRip, HDrip] (DUB, MVO) [ 746 MB ] Несчастный случай / Accident Man [2018 BDRip] MVO [] bober100 Скачать
3 | 0
Фильмы 2018 [DVDrip, WEB-DLRip, HDrip] (DUB, MVO) [ 1.46 GB ] Несчастный случай / Accident Man [2018 BDRip-AVC] MVO [] sokol_ok Скачать
3 | 0
Фильмы [HD 720p, 1080p] (Хороший звук DUB, MVO) [ 10.14 GB ] Несчастный случай / Accident Man [2018 BDRip 1080p] MVO [] sokol_ok Скачать
2 | 0
Фильмы [HD 720p, 1080p] (Хороший звук DUB, MVO) [ 4.02 GB ] Несчастный случай / Accident Man [2018 BDRip 720p] MVO [] sokol_ok Скачать
2 | 0
Фильмы 2018 [DVDrip, WEB-DLRip, HDrip] (DUB, MVO) [ 1.46 GB ] Несчастный случай / Accident Man [2018 BDRip] MVO [] Twi7ter Скачать
5 | 0
Фильмы 2018 [DVDrip, WEB-DLRip, HDrip] (DUB, MVO) [ 746 MB ] Несчастный случай / Accident Man [2018 BDRip-AVC] MVO [] sokol_ok Скачать
2 | 0
Фильмы (Blu-ray, BD-Remux, HDDVD) [ 24.3 GB ] Несчастный случай / Accident Man [2018 BD Remux 1080p] MVO [] bober100 Скачать
1 | 0

28-11-2019 20:33  

Отключить всю рекламу на сайте

08-02-2018 10:05 Несчастный случай Скачать торрент  

bober100, Спасибо! pb.wtf



08-02-2018 18:42 Несчастный случай Скачать торрент  

Спасибо, премного благодарен!pb.wtf



    Дорогой пользователь! Огромная просьба, поблагодарите релизера, оцените раздачу и оставьте свои комментарий, если Вы скачали Несчастный случай через торрент бесплатно! Внесите свою лепту в развитие PiratBit!
    Комментировать посты могут только пользователи прошедшие не сложную регистрацию
    Показать сообщения:    

    Несчастный случай через торрент
    Скачать бесплатно Несчастный случай
    Несчастный случай скачать торрент
    Несчастный случай смотреть онлайн
    Cкачать фильм Несчастный случай бесплатно
    Несчастный случай скачать торрент в хорошем качестве
    Несчастный случай смотреть онлайн бесплатно в хорошем качестве


    Вы не можете начинать темы
    Вы не можете отвечать на сообщения
    Вы не можете редактировать свои сообщения
    Вы не можете удалять свои сообщения
    Вы не можете голосовать в опросах
    Вы не можете прикреплять файлы к сообщениям
    Вы можете скачивать файлы