Ссылка на приватное зеркало всего за 1$. Внимание количество ограничено!!!

OK

1+1

iTunes

мы

OK

1

WEB-DLRip

Джокер

Пифагор

Ведьмак / The Witcher сериал

iTunes

ПШазам

ОК

Оно 2

iTunes

30
pack

Вам бонус

ВАЖНО

!!Акция!!

Alien_RageХит недели

RePack

Resident Evil 21

ИГРА 18+

pack

RePack

jed

RePack

fifa19

RePack

Assassins Creed: Odyssey

RePack

NEED FOR SPEED™ PAYBACK

4 сезон

9 сезон

Бесстыжие 9 сезон

Все сериалы

все сериалы на PB.wtf

RePack

FAR CRY 5
  

Видеоблоги / The Videoblogs (Майкл ДиБизиао) [2016, драма, WEB-DL 720p] MVO ["Синема УС"] pb.wtf

Видеоблоги через торрент pb.wtf

Размер: 2.7 GB | Добавлен: 1 год 11 мес. назад | Торрент скачан:10 раз
Скачать  

08-02-2018 06:52 Видеоблоги Скачать торрент  

Видеоблоги / The VideoblogsГод выпуска: 2016
Страна: США
Жанр: драма
Продолжительность: 01:22:37
Перевод: Любительский (многоголосый) ["Синема УС"]
Субтитры: отсутствуют

Режиссер: Майкл ДиБизиао

rating

В ролях:

Ребекка Де Орнелас, Фиби Аллегра, Мария Кинг, Ричард Брунд, Брайан Шаны, Лия Боннема, Бобби Брауэр, Джимми Далтон, Джеки С. Фриман, Хармони Стемпел

Описание:

Жизнь страдающей молодой девушки неожиданно меняется после того, как проблемная девушка подросток случайно находит ее личный видео дневник.

Качество: WEB-DL 720p
Формат: MKV
Видео кодек: H.264
Аудио кодек: AC3

Видео: 4285 Кбит/с, 1280x720
Аудио#1: AC3, 2 ch, 384 Кбит/с

скриншот  скриншот  скриншот  

Общее
Уникальный идентификатор : 219878614986493383295407378428588969569 (0xA56B14B41C9EED7F97ED4F99CFCFCE61)
Полное имя : D:\The.Videoblogs.2016.P.WEB-DL.72Op_KOSHARA.mkv
Формат : Matroska
Версия формата : Version 2
Размер файла : 2,70 Гбайт
Продолжительность : 1 ч. 22 м.
Режим общего битрейта : Переменный
Общий поток : 4671 Кбит/сек
Дата кодирования : UTC 2018-02-07 09:22:15
Программа кодирования : mkvmerge v8.3.0 ('Over the Horizon') 64bit
Библиотека кодирования : libebml v1.3.1 + libmatroska v1.4.2

Видео
Идентификатор : 1
Формат : AVC
Формат/Информация : Advanced Video Codec
Профиль формата : High@L4.1
Параметр CABAC формата : Да
Параметр ReFrames формата : 4 кадра
Идентификатор кодека : V_MPEG4/ISO/AVC
Продолжительность : 1 ч. 22 м.
Вид битрейта : Переменный
Битрейт : 4285 Кбит/сек
Максимальный битрейт : 5000 Кбит/сек
Ширина : 1280 пикселей
Высота : 720 пикселей
Соотношение сторон : 16:9
Режим частоты кадров : Постоянный
Частота кадров : 23,976 (24000/1001) кадра/сек
Стандарт вещания : Component
Цветовое пространство : YUV
Субдискретизация насыщенности : 4:2:0
Битовая глубина : 8 бит
Тип развёртки : Прогрессивная
Бит/(Пиксели*Кадры) : 0.190
Размер потока : 2,42 Гбайт (90%)
Default : Да
Forced : Нет
Цветовой диапазон : Limited
Основные цвета : BT.709
Характеристики трансфера : BT.709
Коэффициенты матрицы : BT.709

Аудио
Идентификатор : 2
Формат : AC-3
Формат/Информация : Audio Coding 3
Расширение режима : CM (complete main)
Параметр Endianness формата : Big
Идентификатор кодека : A_AC3
Продолжительность : 1 ч. 22 м.
Вид битрейта : Постоянный
Битрейт : 384 Кбит/сек
Каналы : 2 канала
Расположение каналов : Front: L R
Частота : 48,0 КГц
Частота кадров : 31,250 кадров/сек (1536 spf)
Метод сжатия : С потерями
Размер потока : 227 Мбайт (8%)
Default : Да
Forced : Нет

pb.wtf



Скачать Видеоблоги через торрент http://img12.lostpic.net/2018/02/08/5fc47b1485fc22cad403784760b44c1f.jpg Скачать фильм Видеоблоги через торрент бесплантно в хорошем качестве Описание: Жизнь страдающей молодой девушки неожиданно меняется после того, как проблемная девушка подросток случайно находит ее личный ... 10 10 3
Торрент: Зарегистрирован [2018-02-08 06:52] · скачан: 10 раз
Статус: T временная
Размер: 2.7 GB
Как cкачать? Как скачать Видеоблоги через торрент | qTorrent

% Раздел Тема Автор DL S | L
T Фильмы (мультфильмы) cо спонсором показа (Новинки AVI/MKV) [ 1.37 GB ] Видеоблоги / The Videoblogs [2016 WEB-DLRip] MVO ["Синема УС"] bober100 Скачать
1 | 0

28-11-2019 20:33  

Отключить всю рекламу на сайте

    Дорогой пользователь! Огромная просьба, поблагодарите релизера, оцените раздачу и оставьте свои комментарий, если Вы скачали Видеоблоги через торрент бесплатно! Внесите свою лепту в развитие PiratBit!
    Комментировать посты могут только пользователи прошедшие не сложную регистрацию
    Показать сообщения:    

    Видеоблоги через торрент
    Скачать бесплатно Видеоблоги
    Видеоблоги скачать торрент
    Видеоблоги смотреть онлайн
    Cкачать фильм Видеоблоги бесплатно
    Видеоблоги скачать торрент в хорошем качестве
    Видеоблоги смотреть онлайн бесплатно в хорошем качестве


    Вы не можете начинать темы
    Вы не можете отвечать на сообщения
    Вы не можете редактировать свои сообщения
    Вы не можете удалять свои сообщения
    Вы не можете голосовать в опросах
    Вы не можете прикреплять файлы к сообщениям
    Вы можете скачивать файлы