новый адрес
Ссылка на приватное зеркало всего за 1$. Внимание количество ограничено!!!

iTunes

1+1

iTunes

мы

WEB-DL

1

iTunes

Чернобыль

iTunes

Ральф против интернета

Лицензия

ПШазам

Лицензия

Оно 2

Лицензия

30
pack

Вам бонус

ВАЖНО

!!Акция!!

Alien_RageХит недели

RePack

Resident Evil 21

ИГРА 18+

pack

RePack

jed

!!Акция!!

Alien_Rage

RePack

fifa19

RePack

Assassins Creed: Odyssey

RePack

NEED FOR SPEED™ PAYBACK

3 сезон

9 сезон

Бесстыжие 9 сезон

Все сериалы

все сериалы на PB.wtf

RePack

FAR CRY 5
Ребята, катастрофически не хватает 1900р. для оплаты серверов за Октябрь (всвязи с блокировками трафик упал в 3 раза), 1-2р., выручайте.
  

Несчастный случай / Accident Man (Джесси Джонсон / Jesse Johnson) [2018, боевик, триллер, криминал, BDRip-AVC] MVO [Лицензия] pb.wtf

Несчастный случай через торрент pb.wtf

Раздают: 4 [ 0 KB/s ]
Размер: 1.46 GB | Добавлен: 1 год 10 мес. назад | Торрент скачан:986 раз
Скачать  

08-02-2018 11:31 Несчастный случай Скачать торрент  

Несчастный случай
Accident Man


Страна: Великобритания
Жанр: боевик, триллер, криминал

Год выпуска: 2018
Продолжительность: 01:45:29

Перевод: Профессиональный (многоголосый, закадровый) [Blu-ray EUR]
Субтитры: русские (форсированные, полные)
Оригинальная аудиодорожка: нет

Режиссер: Джесси Джонсон / Jesse Johnson

В ролях: Скотт Эдкинс, Рэй Стивенсон, Эшли Грин, Дэвид Пэймер, Майкл Джей Уайт, Рэй Парк, Эми Джонстон, Перри Бенсон, Ник Моран, Росс О’Хеннесси, Тим Ман, Leon Finnan

Описание:
Майк Фэллон известен тем, что превращает все свои убийства в несчастный случай. Но его отношение к делу полностью меняется, когда умирает его бывшая девушка.



Релиз:

Автор рипа: stalkerok | Моя группа

Сэмпл

Качество видео: BDRip-AVC [Accident Man (2018) Blu-ray Disc [EUR] -PCH]
Формат видео: MKV
Видео кодек: AVC
Аудио кодек: AC3
Видео: 1529 Кбит/сек, 1046x438 (2.40:1), 23,976 кадр/сек, AVC
Аудио: русский, 448 Кбит/сек, 48 КГц, 5.1, AC3
Навигация по главам: есть

---[Information] [08.02.2018 14:10:08] x264 [info]: frame I:1273 Avg QP:15.14 size: 54550
---[Information] [08.02.2018 14:10:08] x264 [info]: frame P:35403 Avg QP:19.77 size: 16572
---[Information] [08.02.2018 14:10:08] x264 [info]: frame B:115076 Avg QP:21.72 size: 4808

General
Unique ID : 224003943885911178639193015519039497407 (0xA885971F26920C1392AECDC8DD58A4BF)
Complete name : M:\$new\Accident Man (2018)\Accident.Man.2018.BDRip-AVC.RUS.stalkerok.new-team.mkv
Format : Matroska
Format version : Version 4 / Version 2
File size : 1.46 GiB
Duration : 1 h 45 min
Overall bit rate : 1 978 kb/s
Movie name : Accident Man (2018) (Rip by stalkerok)
Encoded date : UTC 2018-02-08 11:20:35
Writing application : mkvmerge v8.6.1 ('Flying') 64bit
Writing library : libebml v1.3.3 + libmatroska v1.4.4

Video
ID : 1
Format : AVC
Format/Info : Advanced Video Codec
Format profile : High@L4.1
Format settings, CABAC : Yes
Format settings, ReFrames : 12 frames
Codec ID : V_MPEG4/ISO/AVC
Duration : 1 h 45 min
Bit rate : 1 529 kb/s
Width : 1 046 pixels
Height : 438 pixels
Display aspect ratio : 2.40:1
Frame rate mode : Constant
Frame rate : 23.976 (24000/1001) FPS
Color space : YUV
Chroma subsampling : 4:2:0
Bit depth : 8 bits
Scan type : Progressive
Bits/(Pixel*Frame) : 0.139
Stream size : 1.13 GiB (77%)
Title : Accident Man (2018) (Rip by stalkerok)
Writing library : x264 core 152 r2851kMod ba24899
Encoding settings : cabac=1 / ref=12 / deblock=1:-3:-2 / analyse=0x3:0x133 / me=umh / subme=11 / psy=1 / fade_compensate=0.00 / psy_rd=1.00:0.00 / mixed_ref=1 / me_range=32 / chroma_me=1 / trellis=2 / 8x8dct=1 / cqm=0 / deadzone=21,11 / fast_pskip=0 / chroma_qp_offset=-2 / threads=12 / lookahead_threads=3 / sliced_threads=0 / nr=0 / decimate=0 / interlaced=0 / bluray_compat=0 / constrained_intra=0 / bframes=15 / b_pyramid=2 / b_adapt=2 / b_bias=0 / direct=3 / weightb=1 / open_gop=0 / weightp=2 / keyint=240 / keyint_min=23 / scenecut=40 / intra_refresh=0 / rc_lookahead=60 / rc=2pass / mbtree=0 / bitrate=1529 / ratetol=1.0 / qcomp=0.65 / qpmin=0 / qpmax=69 / qpstep=4 / cplxblur=20.0 / qblur=0.5 / vbv_maxrate=50000 / vbv_bufsize=62500 / nal_hrd=none / filler=0 / ip_ratio=1.40 / pb_ratio=1.30 / aq=3:0.80 / zones=147350,151751,q=34
Default : Yes
Forced : No

Audio
ID : 2
Format : AC-3
Format/Info : Audio Coding 3
Mode extension : CM (complete main)
Format settings, Endianness : Big
Codec ID : A_AC3
Duration : 1 h 45 min
Bit rate mode : Constant
Bit rate : 448 kb/s
Channel(s) : 6 channels
Channel positions : Front: L C R, Side: L R, LFE
Sampling rate : 48.0 kHz
Frame rate : 31.250 FPS (1536 spf)
Compression mode : Lossy
Stream size : 338 MiB (23%)
Language : Russian
Default : Yes
Forced : No

Text #1
ID : 3
Format : UTF-8
Codec ID : S_TEXT/UTF8
Codec ID/Info : UTF-8 Plain Text
Duration : 1 h 22 min
Bit rate : 0 b/s
Count of elements : 10
Stream size : 400 Bytes (0%)
Title : Forced
Language : Russian
Default : Yes
Forced : No

Text #2
ID : 4
Format : UTF-8
Codec ID : S_TEXT/UTF8
Codec ID/Info : UTF-8 Plain Text
Duration : 1 h 40 min
Bit rate : 90 b/s
Count of elements : 1383
Stream size : 66.5 KiB (0%)
Language : Russian
Default : No
Forced : No

Menu
00:00:00.000 : en:Chapter 1
00:06:02.153 : en:Chapter 2
00:15:28.844 : en:Chapter 3
00:17:56.366 : en:Chapter 4
00:21:30.455 : en:Chapter 5
00:28:05.558 : en:Chapter 6
00:33:13.157 : en:Chapter 7
00:42:36.554 : en:Chapter 8
00:46:16.273 : en:Chapter 9
00:53:10.729 : en:Chapter 10
00:58:43.144 : en:Chapter 11
01:05:58.871 : en:Chapter 12
01:11:50.306 : en:Chapter 13
01:15:08.378 : en:Chapter 14
01:26:46.201 : en:Chapter 15
01:33:46.203 : en:Chapter 16
скриншот   скриншот   скриншот   скриншот   скриншот   скриншот   скриншот  
pb.wtf



Скачать Несчастный случай через торрент http://i6.imageban.ru/out/2017/09/18/2ff75c0c358795c5946784cc1680714d.png Скачать фильм Несчастный случай через торрент бесплантно в хорошем качестве Описание:Майк Фэллон известен тем, что превращает все свои убийства в несчастный случай. Но его отношение к делу полностью меняется, когда ... 8.6 10 18
Info! Золотая раздача, скачанное не засчитывается.
Торрент: Зарегистрирован [2018-02-08 11:31] · скачан: 986 раз
Статус: √ проверено
Размер: 1.46 GB
Как cкачать? Как скачать Несчастный случай через торрент | qTorrent

% Раздел Тема Автор DL S | L
Фильмы 2018 [DVDrip, WEB-DLRip, HDrip] (DUB, MVO) [ 746 MB ] Несчастный случай / Accident Man [2018 BDRip] MVO [] bober100 Скачать
4 | 0
Фильмы [HD 720p, 1080p] (Хороший звук DUB, MVO) [ 10.14 GB ] Несчастный случай / Accident Man [2018 BDRip 1080p] MVO [] sokol_ok Скачать
2 | 0
Фильмы [HD 720p, 1080p] (Хороший звук DUB, MVO) [ 4.02 GB ] Несчастный случай / Accident Man [2018 BDRip 720p] MVO [] sokol_ok Скачать
2 | 0
Фильмы 2018 [DVDrip, WEB-DLRip, HDrip] (DUB, MVO) [ 1.46 GB ] Несчастный случай / Accident Man [2018 BDRip] MVO [] Twi7ter Скачать
2 | 0
Фильмы [HD 720p, 1080p] (Хороший звук DUB, MVO) [ 9 GB ] Несчастный случай / Accident Man [2018 BDRip 1080p] MVO [ Blu-ray EUR] bober100 Скачать
1 | 0
Фильмы 2018 [DVDrip, WEB-DLRip, HDrip] (DUB, MVO) [ 746 MB ] Несчастный случай / Accident Man [2018 BDRip-AVC] MVO [] sokol_ok Скачать
2 | 0
Фильмы (Blu-ray, BD-Remux, HDDVD) [ 24.3 GB ] Несчастный случай / Accident Man [2018 BD Remux 1080p] MVO [] bober100 Скачать
1 | 0

28-11-2019 20:33  

Отключить всю рекламу на сайте

10-02-2018 05:11 Несчастный случай Скачать торрент  

Не сказал бы чтобы меня прям вот тошнило при просмотре этого творчества, скорее я безразлично смотрел на экран в ожидании начала годного сюжета посреди унылой мельтишни.

Жалею о потраченном на это гэ время pb.wtf



13-02-2018 18:48 Несчастный случай Скачать торрент  

sv13-spb писал(а):

Не сказал бы чтобы меня прям вот тошнило при просмотре этого творчества, скорее я безразлично смотрел на экран в ожидании начала годного сюжета посреди унылой мельтишни.

Жалею о потраченном на это гэ время

спс!!pb.wtf



07-04-2019 11:39 Несчастный случай Скачать торрент  

Выключил этот бред на 10 минуте. Стер .pb.wtf



    Дорогой пользователь! Огромная просьба, поблагодарите релизера, оцените раздачу и оставьте свои комментарий, если Вы скачали Несчастный случай через торрент бесплатно! Внесите свою лепту в развитие PiratBit!
    Комментировать посты могут только пользователи прошедшие не сложную регистрацию
    Показать сообщения:    

    Несчастный случай через торрент
    Скачать бесплатно Несчастный случай
    Несчастный случай скачать торрент
    Несчастный случай смотреть онлайн
    Cкачать фильм Несчастный случай бесплатно
    Несчастный случай скачать торрент в хорошем качестве
    Несчастный случай смотреть онлайн бесплатно в хорошем качестве


    Вы не можете начинать темы
    Вы не можете отвечать на сообщения
    Вы не можете редактировать свои сообщения
    Вы не можете удалять свои сообщения
    Вы не можете голосовать в опросах
    Вы не можете прикреплять файлы к сообщениям
    Вы можете скачивать файлы