Marvel's Avengers Deluxe Edition (супер цена) 159р. Внимание количество ограничено!!!

2 сезон

iTunes

iTunes

1

iTunes

iTunes

iTunes

WEBRip

iTunes

30
pack

Новость дня

ВАЖНО

!!Акция!!

Alien_RageХит недели

RePack

Horizon Zero Dawn

ИГРА 18+

pack

RePack

jed

!!Акция!!

Alien_Rage

RePack

fifa19

RePack

Assassins Creed: Odyssey

RePack

NEED FOR SPEED™ PAYBACK

4 сезон

9 сезон

Бесстыжие 9 сезон

Все сериалы

все сериалы на PB.wtf

RePack

FAR CRY 5
  

Балерина / The Ballerina (Стив Пуллен) [2017, ужасы, триллер, драма, WEB-DL 720p] MVO ["Синема УС"] pb.wtf

Балерина через торрент pb.wtf

Размер: 3.68 GB | Добавлен: 2 года 7 мес. назад | Торрент скачан:43 раза
Скачать  

08-02-2018 17:11 Балерина Скачать торрент  

Балерина / The BallerinaГод выпуска: 2017
Страна: США
Жанр: ужасы, триллер, драма
Продолжительность: 01:47:06
Перевод: Любительский (многоголосый) ["Синема УС"]
Субтитры: отсутствуют

Режиссер: Стив Пуллен

rating

В ролях:

Дина Дилл, Томас Микал Форд, Морган Крайер, Аделла Готье, Стив Пуллен

Описание:

Мужчина и его девятилетняя дочь вынуждены скрываться в болотистых лесах Вирджинии. Их преследует страшная трагедия и горе, и им придется столкнуться лицом к лицу со своим прошлым ради своего же будущего.

Качество: WEB-DL 720p
Формат: MKV
Видео кодек: H.264
Аудио кодек: AC3

Видео: 4533 Кбит/с, 1280x538
Аудио#1: AC3, 2 ch, 384 Кбит/с

скриншот  скриншот  скриншот  

Общее
Уникальный идентификатор : 244268012423560609429357725518435539985 (0xB7C44ED65A0F7067BD2DB1635AA55C11)
Полное имя : D:\The.Ballerina.2017.P.WEB-DL.72Op_KOSHARA.mkv
Формат : Matroska
Версия формата : Version 2
Размер файла : 3,68 Гбайт
Продолжительность : 1 ч. 47 м.
Режим общего битрейта : Переменный
Общий поток : 4919 Кбит/сек
Дата кодирования : UTC 2018-02-07 02:27:59
Программа кодирования : mkvmerge v8.3.0 ('Over the Horizon') 64bit
Библиотека кодирования : libebml v1.3.1 + libmatroska v1.4.2

Видео
Идентификатор : 1
Формат : AVC
Формат/Информация : Advanced Video Codec
Профиль формата : High@L4.1
Параметр CABAC формата : Да
Параметр ReFrames формата : 4 кадра
Идентификатор кодека : V_MPEG4/ISO/AVC
Продолжительность : 1 ч. 47 м.
Вид битрейта : Переменный
Битрейт : 4533 Кбит/сек
Максимальный битрейт : 5000 Кбит/сек
Ширина : 1280 пикселей
Высота : 538 пикселей
Соотношение сторон : 2,40:1
Режим частоты кадров : Постоянный
Частота кадров : 23,976 (24000/1001) кадра/сек
Стандарт вещания : Component
Цветовое пространство : YUV
Субдискретизация насыщенности : 4:2:0
Битовая глубина : 8 бит
Тип развёртки : Прогрессивная
Бит/(Пиксели*Кадры) : 0.269
Размер потока : 3,32 Гбайт (90%)
Default : Да
Forced : Нет
Цветовой диапазон : Limited
Основные цвета : BT.709
Характеристики трансфера : BT.709
Коэффициенты матрицы : BT.709

Аудио
Идентификатор : 2
Формат : AC-3
Формат/Информация : Audio Coding 3
Расширение режима : CM (complete main)
Параметр Endianness формата : Big
Идентификатор кодека : A_AC3
Продолжительность : 1 ч. 47 м.
Вид битрейта : Постоянный
Битрейт : 384 Кбит/сек
Каналы : 2 канала
Расположение каналов : Front: L R
Частота : 48,0 КГц
Частота кадров : 31,250 кадров/сек (1536 spf)
Метод сжатия : С потерями
Размер потока : 294 Мбайт (8%)
Default : Да
Forced : Нет

pb.wtf



Скачать Балерина через торрент http://img12.lostpic.net/2018/02/08/811cfd131f21ad2a398f1eb52bd1f1e8.jpg Скачать фильм Балерина через торрент бесплантно в хорошем качестве Описание: Мужчина и его девятилетняя дочь вынуждены скрываться в болотистых лесах Вирджинии. Их преследует страшная трагедия и горе, и им ... 5.5 10 4
Торрент: Зарегистрирован [2018-02-08 17:11] · скачан: 43 раз
Статус: T временная
Размер: 3.68 GB
Как cкачать? Как скачать Балерина через торрент | qTorrent

% Раздел Тема Автор DL S | L
T Фильмы (мультфильмы) cо спонсором показа (Новинки AVI/MKV) [ 1.37 GB ] Балерина / The Ballerina [2017 WEB-DLRip] MVO ["Синема УС"] bober100 Скачать
1 | 0
Порно фильмы с сюжетом [ 903 MB ] Балерина днём Проститутка ночью / Ballerina by day escort the night [2014 Anal Sex DP Feature DVDRip Оригинал] Magnat Скачать
1 | 0
Большие сиськи [ 297 MB ] [BigTitsRoundAsses / BangBros] Adrenalynn / Похотливая балерина Адреналин [2007 All sex DVDRip] SUPERXX Скачать
1 | 0

28-11-2019 20:33  

Отключить всю рекламу на сайте

    Дорогой пользователь! Огромная просьба, поблагодарите релизера, оцените раздачу и оставьте свои комментарий, если Вы скачали Балерина через торрент бесплатно! Внесите свою лепту в развитие PiratBit!
    Комментировать посты могут только пользователи прошедшие не сложную регистрацию
    Показать сообщения:    

    Балерина через торрент
    Скачать бесплатно Балерина
    Балерина скачать торрент
    Балерина смотреть онлайн
    Cкачать фильм Балерина бесплатно
    Балерина скачать торрент в хорошем качестве
    Балерина смотреть онлайн бесплатно в хорошем качестве


    Вы не можете начинать темы
    Вы не можете отвечать на сообщения
    Вы не можете редактировать свои сообщения
    Вы не можете удалять свои сообщения
    Вы не можете голосовать в опросах
    Вы не можете прикреплять файлы к сообщениям
    Вы можете скачивать файлы