Доктор Стрэндж

Лицензия

Добыча

MVO

Дом дракона

1 сезон

Тор

Лицензия

Мэверик

Лицензия

Там, где раки поют

MVO

Властелин колец

1 сезон

Ultimate

pack

Рекомендуем

30

Repack

ВАЖНО

ВАЖНО

Ghostwire

RePack

jed

RePack

nioh2

RePack

RDR2

RePack

NEED FOR SPEED™ PAYBACK

RePack

скачать торрент

Кинопоиск HD

Острые козырьки 6 сезон

6 сезон

FAR CRY 6

RePack

скачать торрент

Лицензия

скачать торрент

MVO

1

1 сезон

скачать торрент

1 сезон

скачать торрент

Лицензия

  

Безжалостный / Relentless (Лэнс Трэйси) [2018, триллер, WEB-DL 720p] MVO ["Синема УС"]

Безжалостный через торрент pb.wtf

Размер: 3.27 GB | Добавлен: 4 года 7 мес. назад | Торрент скачан:63 раза
Смотреть онлайн Безжалостный | Скачать   

08-02-2018 17:26 Безжалостный Скачать торрент  

Безжалостный / RelentlessГод выпуска: 2018
Страна: США, Сальвадор
Жанр: триллер
Продолжительность: 01:36:24
Перевод: Любительский (многоголосый) ["Синема УС"]
Субтитры: отсутствуют

Режиссер: Лэнс Трэйси

rating

В ролях:

Эльпидия Каррильо, Дондре Уитфилд, Кортни Тейлор, Лорен Шоу, Сидни Свини, Джэйк Ла Ботц, Питер Эсли Холден, Мартин Чавез, Мариана Новак, Дэвид Кастро

Описание:

Мать американской девочки отправляется на поиски своей дочери, которая была похищена торговцами людьми в Центральной Америке.

Качество: WEB-DL 720p
Формат: MKV
Видео кодек: H.264
Аудио кодек: AC3

Видео: 4464 Кбит/с, 1280x674
Аудио#1: AC3, 2 ch, 384 Кбит/с

скриншот  скриншот  скриншот  

Общее
Уникальный идентификатор : 251648656797824803310471491456382209021 (0xBD51C4B32FDB5A459A3C4CF1C7430BFD)
Полное имя : D:\Relentless.2018.P.WEB-DL.72Op_KOSHARA.mkv
Формат : Matroska
Версия формата : Version 2
Размер файла : 3,27 Гбайт
Продолжительность : 1 ч. 36 м.
Режим общего битрейта : Переменный
Общий поток : 4850 Кбит/сек
Дата кодирования : UTC 2018-02-07 11:43:06
Программа кодирования : mkvmerge v8.3.0 ('Over the Horizon') 64bit
Библиотека кодирования : libebml v1.3.1 + libmatroska v1.4.2

Видео
Идентификатор : 1
Формат : AVC
Формат/Информация : Advanced Video Codec
Профиль формата : [email protected]
Параметр CABAC формата : Да
Параметр ReFrames формата : 4 кадра
Идентификатор кодека : V_MPEG4/ISO/AVC
Продолжительность : 1 ч. 36 м.
Вид битрейта : Переменный
Битрейт : 4464 Кбит/сек
Максимальный битрейт : 5000 Кбит/сек
Ширина : 1280 пикселей
Высота : 674 пикселя
Соотношение сторон : 1,899
Режим частоты кадров : Постоянный
Частота кадров : 23,976 (24000/1001) кадра/сек
Стандарт вещания : Component
Цветовое пространство : YUV
Субдискретизация насыщенности : 4:2:0
Битовая глубина : 8 бит
Тип развёртки : Прогрессивная
Бит/(Пиксели*Кадры) : 0.211
Размер потока : 2,94 Гбайт (90%)
Default : Да
Forced : Нет
Цветовой диапазон : Limited
Основные цвета : BT.709
Характеристики трансфера : BT.709
Коэффициенты матрицы : BT.709

Аудио
Идентификатор : 2
Формат : AC-3
Формат/Информация : Audio Coding 3
Расширение режима : CM (complete main)
Параметр Endianness формата : Big
Идентификатор кодека : A_AC3
Продолжительность : 1 ч. 36 м.
Вид битрейта : Постоянный
Битрейт : 384 Кбит/сек
Каналы : 2 канала
Расположение каналов : Front: L R
Частота : 48,0 КГц
Частота кадров : 31,250 кадров/сек (1536 spf)
Метод сжатия : С потерями
Размер потока : 265 Мбайт (8%)
Default : Да
Forced : Нет




Скачать Безжалостный через торрент http://img12.lostpic.net/2018/02/08/53ea1302e588fdd2b62623705dd02708.jpg Скачать, смотреть онлайн Безжалостный бесплантно в хорошем качестве Описание: Мать американской девочки отправляется на поиски своей дочери, которая была похищена торговцами людьми в Центральной ... 7 10 6
Торрент: Зарегистрирован [2018-02-08 17:26] · скачан: 63 раз
Статус: T временная
Размер: 3.27 GB
Как cкачать? Как скачать Безжалостный через торрент | UTorrent

% Раздел Тема Автор DL S | L
T Фильмы (мультфильмы) cо спонсором показа (Новинки AVI/MKV) [ 1.37 GB ] Безжалостный / Relentless | MVO | DLRip bober100 Скачать
1 | 0

28-11-2019 20:33  

Отключить вcю реклaмy на сайте

    Дорогой пользователь! Огромная просьба, поблагодарите релизера, оцените раздачу и оставьте свои комментарий, если Вы скачали Безжалостный через торрент бесплатно!!
    Комментировать посты могут только пользователи прошедшие не сложную регистрацию
    Показать сообщения:    


    Безжалостный через торрент
    Скачать бесплатно Безжалостный
    Безжалостный скачать торрент
    Безжалостный смотреть онлайн
    Cкачать фильм Безжалостный бесплатно
    Безжалостный скачать торрент в хорошем качестве
    Безжалостный смотреть онлайн бесплатно в хорошем качестве
    Вы не можете начинать темы
    Вы не можете отвечать на сообщения
    Вы не можете редактировать свои сообщения
    Вы не можете удалять свои сообщения
    Вы не можете голосовать в опросах
    Вы не можете прикреплять файлы к сообщениям
    Вы можете скачивать файлы