новый адрес
Ссылка на приватное зеркало всего за 1$. Внимание количество ограничено!!!

iTunes

1+1

iTunes

мы

WEB-DL

1

iTunes

Чернобыль

iTunes

Ральф против интернета

Лицензия

ПШазам

Лицензия

Оно 2

Лицензия

30
pack

Вам бонус

ВАЖНО

!!Акция!!

Alien_RageХит недели

RePack

Resident Evil 21

ИГРА 18+

pack

RePack

jed

!!Акция!!

Alien_Rage

RePack

fifa19

RePack

Assassins Creed: Odyssey

RePack

NEED FOR SPEED™ PAYBACK

3 сезон

9 сезон

Бесстыжие 9 сезон

Все сериалы

все сериалы на PB.wtf

RePack

FAR CRY 5
Ребята, катастрофически не хватает 1900р. для оплаты серверов за Октябрь (всвязи с блокировками трафик упал в 3 раза), 1-2р., выручайте.
  

Несчастный случай / Accident Man (Джесси Джонсон / Jesse Johnson) [2018, боевик, триллер, криминал, BDRip-AVC] MVO [Лицензия] pb.wtf

Несчастный случай через торрент pb.wtf

Раздают: 1 [ 0 KB/s ]
Размер: 746 MB | Добавлен: 1 год 10 мес. назад | Торрент скачан:159 раз
Скачать  

08-02-2018 18:22 Несчастный случай Скачать торрент  

Несчастный случай
Accident Man


Страна: Великобритания
Жанр: боевик, триллер, криминал

Год выпуска: 2018
Продолжительность: 01:45:29

Перевод: Профессиональный (многоголосый, закадровый) [Blu-ray EUR]
Субтитры: русские (форсированные, полные)
Оригинальная аудиодорожка: нет

Режиссер: Джесси Джонсон / Jesse Johnson

В ролях: Скотт Эдкинс, Рэй Стивенсон, Эшли Грин, Дэвид Пэймер, Майкл Джей Уайт, Рэй Парк, Эми Джонстон, Перри Бенсон, Ник Моран, Росс О’Хеннесси, Тим Ман, Leon Finnan

Описание:
Майк Фэллон известен тем, что превращает все свои убийства в несчастный случай. Но его отношение к делу полностью меняется, когда умирает его бывшая девушка.



Релиз:

Автор рипа: stalkerok | Моя группа

Сэмпл

Качество видео: BDRip-AVC [Accident Man (2018) Blu-ray Disc [EUR] -PCH]
Формат видео: MKV
Видео кодек: AVC
Аудио кодек: AAC
Видео: 923 Кбит/сек, 836x350 (2.40:1), 23,976 кадр/сек, AVC
Аудио: русский, 64,0 Кбит/сек, 48,0 КГц / 24,0 КГц, 2 канала, AAC
Навигация по главам: есть

---[Information] [08.02.2018 21:04:19] x264 [info]: frame I:1341 Avg QP:15.00 size: 35217
---[Information] [08.02.2018 21:04:19] x264 [info]: frame P:34527 Avg QP:19.58 size: 10267
---[Information] [08.02.2018 21:04:19] x264 [info]: frame B:115884 Avg QP:21.61 size: 2834

Общее
Уникальный идентификатор : 234243243942438392535724594104985701066 (0xB0399B97555A7A96B02F521776FFCACA)
Полное имя : M:\$new\Accident Man (2018)\Accident.Man.2018.BDRip-AVC.RUS..stalkerok.new-team.mkv
Формат : Matroska
Версия формата : Version 4 / Version 2
Размер файла : 746 Мбайт
Продолжительность : 1 ч. 45 м.
Общий поток : 989 Кбит/сек
Название фильма : Accident Man (2018) (Rip by stalkerok)
Дата кодирования : UTC 2018-02-08 18:06:45
Программа кодирования : mkvmerge v8.6.1 ('Flying') 64bit
Библиотека кодирования : libebml v1.3.3 + libmatroska v1.4.4

Видео
Идентификатор : 3
Формат : AVC
Формат/Информация : Advanced Video Codec
Профиль формата : High@L4.1
Параметр CABAC формата : Да
Параметр ReFrames формата : 12 кадров
Идентификатор кодека : V_MPEG4/ISO/AVC
Продолжительность : 1 ч. 45 м.
Битрейт : 923 Кбит/сек
Ширина : 836 пикселей
Высота : 350 пикселей
Соотношение сторон : 2,40:1
Режим частоты кадров : Постоянный
Частота кадров : 23,976 (24000/1001) кадра/сек
Цветовое пространство : YUV
Субдискретизация насыщенности : 4:2:0
Битовая глубина : 8 бит
Тип развёртки : Прогрессивная
Бит/(Пиксели*Кадры) : 0.132
Размер потока : 696 Мбайт (93%)
Заголовок : Accident Man (2018) (Rip by stalkerok)
Библиотека кодирования : x264 core 152 r2851kMod ba24899
Настройки программы : cabac=1 / ref=12 / deblock=1:-3:-2 / analyse=0x3:0x133 / me=umh / subme=11 / psy=1 / fade_compensate=0.00 / psy_rd=1.00:0.00 / mixed_ref=1 / me_range=32 / chroma_me=1 / trellis=2 / 8x8dct=1 / cqm=0 / deadzone=21,11 / fast_pskip=0 / chroma_qp_offset=-2 / threads=11 / lookahead_threads=2 / sliced_threads=0 / nr=0 / decimate=0 / interlaced=0 / bluray_compat=0 / constrained_intra=0 / bframes=16 / b_pyramid=2 / b_adapt=2 / b_bias=0 / direct=3 / weightb=1 / open_gop=0 / weightp=2 / keyint=240 / keyint_min=23 / scenecut=40 / intra_refresh=0 / rc_lookahead=60 / rc=2pass / mbtree=0 / bitrate=923 / ratetol=1.0 / qcomp=0.65 / qpmin=0 / qpmax=69 / qpstep=4 / cplxblur=20.0 / qblur=0.5 / vbv_maxrate=50000 / vbv_bufsize=62500 / nal_hrd=none / filler=0 / ip_ratio=1.40 / pb_ratio=1.30 / aq=3:0.94 / zones=147350,151751,q=34
Default : Да
Forced : Нет

Аудио
Идентификатор : 4
Формат : AAC
Формат/Информация : Advanced Audio Codec
Профиль формата : HE-AAC / LC
Идентификатор кодека : A_AAC
Продолжительность : 1 ч. 45 м.
Битрейт : 64,0 Кбит/сек
Каналы : 2 канала
Расположение каналов : Front: L R
Частота : 48,0 КГц / 24,0 КГц
Частота кадров : 23,438 кадра/сек (1024 spf)
Метод сжатия : С потерями
Задержка видео : 31 мс.
Размер потока : 48,3 Мбайт (6%)
Язык : Russian
Default : Да
Forced : Нет

Текст #1
Идентификатор : 1
Формат : UTF-8
Идентификатор кодека : S_TEXT/UTF8
Идентификатор кодека/Информация : UTF-8 Plain Text
Продолжительность : 1 ч. 22 м.
Битрейт : 0 бит/сек
Count of elements : 10
Размер потока : 400 байт (0%)
Заголовок : Forced
Язык : Russian
Default : Да
Forced : Нет

Текст #2
Идентификатор : 2
Формат : UTF-8
Идентификатор кодека : S_TEXT/UTF8
Идентификатор кодека/Информация : UTF-8 Plain Text
Продолжительность : 1 ч. 40 м.
Битрейт : 90 бит/сек
Count of elements : 1383
Размер потока : 66,5 Кбайт (0%)
Язык : Russian
Default : Нет
Forced : Нет

Меню
00:00:00.000 : en:Chapter 1
00:06:02.153 : en:Chapter 2
00:15:28.844 : en:Chapter 3
00:17:56.366 : en:Chapter 4
00:21:30.455 : en:Chapter 5
00:28:05.558 : en:Chapter 6
00:33:13.157 : en:Chapter 7
00:42:36.554 : en:Chapter 8
00:46:16.273 : en:Chapter 9
00:53:10.729 : en:Chapter 10
00:58:43.144 : en:Chapter 11
01:05:58.871 : en:Chapter 12
01:11:50.306 : en:Chapter 13
01:15:08.378 : en:Chapter 14
01:26:46.201 : en:Chapter 15
01:33:46.203 : en:Chapter 16
скриншот   скриншот   скриншот   скриншот   скриншот   скриншот   скриншот   скриншот  
pb.wtf



Скачать Несчастный случай через торрент http://i6.imageban.ru/out/2017/09/18/2ff75c0c358795c5946784cc1680714d.png Скачать фильм Несчастный случай через торрент бесплантно в хорошем качестве Описание:Майк Фэллон известен тем, что превращает все свои убийства в несчастный случай. Но его отношение к делу полностью меняется, когда ... 6.1 10 7
Info! Золотая раздача, скачанное не засчитывается.
Торрент: Зарегистрирован [2018-02-08 18:22] · скачан: 159 раз
Статус: √ проверено
Размер: 746 MB
Как cкачать? Как скачать Несчастный случай через торрент | qTorrent

% Раздел Тема Автор DL S | L
Фильмы 2018 [DVDrip, WEB-DLRip, HDrip] (DUB, MVO) [ 746 MB ] Несчастный случай / Accident Man [2018 BDRip] MVO [] bober100 Скачать
2 | 0
Фильмы 2018 [DVDrip, WEB-DLRip, HDrip] (DUB, MVO) [ 1.46 GB ] Несчастный случай / Accident Man [2018 BDRip-AVC] MVO [] sokol_ok Скачать
1 | 0
Фильмы [HD 720p, 1080p] (Хороший звук DUB, MVO) [ 10.14 GB ] Несчастный случай / Accident Man [2018 BDRip 1080p] MVO [] sokol_ok Скачать
1 | 0
Фильмы [HD 720p, 1080p] (Хороший звук DUB, MVO) [ 4.02 GB ] Несчастный случай / Accident Man [2018 BDRip 720p] MVO [] sokol_ok Скачать
3 | 0
Фильмы 2018 [DVDrip, WEB-DLRip, HDrip] (DUB, MVO) [ 1.46 GB ] Несчастный случай / Accident Man [2018 BDRip] MVO [] Twi7ter Скачать
2 | 0
Фильмы [HD 720p, 1080p] (Хороший звук DUB, MVO) [ 9 GB ] Несчастный случай / Accident Man [2018 BDRip 1080p] MVO [ Blu-ray EUR] bober100 Скачать
1 | 0
Фильмы (Blu-ray, BD-Remux, HDDVD) [ 24.3 GB ] Несчастный случай / Accident Man [2018 BD Remux 1080p] MVO [] bober100 Скачать
1 | 0

28-11-2019 20:33  

Отключить всю рекламу на сайте

    Дорогой пользователь! Огромная просьба, поблагодарите релизера, оцените раздачу и оставьте свои комментарий, если Вы скачали Несчастный случай через торрент бесплатно! Внесите свою лепту в развитие PiratBit!
    Комментировать посты могут только пользователи прошедшие не сложную регистрацию
    Показать сообщения:    

    Несчастный случай через торрент
    Скачать бесплатно Несчастный случай
    Несчастный случай скачать торрент
    Несчастный случай смотреть онлайн
    Cкачать фильм Несчастный случай бесплатно
    Несчастный случай скачать торрент в хорошем качестве
    Несчастный случай смотреть онлайн бесплатно в хорошем качестве


    Вы не можете начинать темы
    Вы не можете отвечать на сообщения
    Вы не можете редактировать свои сообщения
    Вы не можете удалять свои сообщения
    Вы не можете голосовать в опросах
    Вы не можете прикреплять файлы к сообщениям
    Вы можете скачивать файлы