Ссылка на приватное зеркало нашего сайта всего за 1$. Внимание количество ограничено!!!

2 сезон

iTunes

1 сезон

1

2 сезон

2 сезон

iTunes

1 сезон

RePack

30

Ultimate

ВАЖНО

ИГРА 18+

pack

RePack

MK11
pack

Забери бонус

RePack

jed

!!Акция!!

Alien_Rage

RePack

fifa19

RePack

Assassins Creed: Odyssey

RePack

NEED FOR SPEED™ PAYBACK

4 сезон

9 сезон

Бесстыжие 9 сезон

Все сериалы

все сериалы на PB.wtf

RePack

FAR CRY 5
  

Падение Ордена / Knightfall / Сезон: 1 / Серии: 1-10 из 10 (Дуглас Маккиннон, Метин Хусейн, Дэвид Петрарка) [2017, боевик, драма, военный, приключения, HDTVRip 720p] DVO [Sunshine Studio] pb.wtf

Падение Ордена через торрент pb.wtf

Размер: 11.67 GB | Добавлен: 2 года 9 мес. назад | Торрент скачан:34 раза
Скачать  

08-02-2018 20:39 Падение Ордена Скачать торрент  

Падение Ордена / KnightfallИнформация о фильме:

Название: Падение Ордена
Оригинальное название: Knightfall
Год выпуска: 2017 (1 сезон)
Страна: США / A+E Studios, Midnight Radio, Stillking Films
Жанр: боевик, драма, военный, приключения
Продолжительность: ~ 00:43:00 серия
Перевод: Любительский (двухголосый) -
Субтитры: отсутствуют
✦ Примечание: Присутствует реклама!

Режиссер: Дуглас Маккиннон, Метин Хусейн, Дэвид Петрарка

rating

В ролях:

Том Каллен, Падрейк Делани, Саймон Мерреллс, Оливия Росс, Джулиан Овенден, Эд Стоппард, Сабрина Бартлетт, Бобби Шофилд, Сара-Софи Бусснина, Нассер Мемарзиа и др.

Описание:

Действие сериала разворачивается вокруг самой драгоценной и загадочной реликвии христианства — Святого Грааля, бесследно утерянного в результате падения города Акры, последнего оплота тамплиеров. Существование Ордена теперь под угрозой и зависит от того, будет ли найден Кубок Христа. На поиски Грааля отправляется предводитель тамплиеров — храбрый воин сэр Лэндри, чтобы помешать уничтожению Ордена.

Информация о файле:

Качество: HDTVRip 720p
Формат: MKV

Видео: MPEG-4 AVC, ~ 4500 Кбит/с, 1280х720
Аудио: Русский (AC3, 2 ch, 192 Кбит/с)
скриншот   скриншот   скриншот   скриншот  

Общее
Уникальный идентификатор : 208675668500268051914876237669487714624 (0x9CFD78CC02F444E3BBBD08B23D89A140)
Полное имя : D:\Knightfall.S01.720p.SunshineStudio\Knightfall.S01E01.720p.SunshineStudio.mkv
Формат : Matroska
Версия формата : Version 4 / Version 2
Размер файла : 1,46 Гбайт
Продолжительность : 44 м. 58 с.
Общий поток : 4633 Кбит/сек
Дата кодирования : UTC 2017-12-16 16:40:01
Программа кодирования : mkvmerge v8.3.0 ('Over the Horizon') 64bit
Библиотека кодирования : libebml v1.3.1 + libmatroska v1.4.2

Видео
Идентификатор : 1
Формат : AVC
Формат/Информация : Advanced Video Codec
Профиль формата : High@L3.1
Параметр CABAC формата : Да
Параметр ReFrames формата : 4 кадра
Идентификатор кодека : V_MPEG4/ISO/AVC
Продолжительность : 44 м. 58 с.
Битрейт : 4439 Кбит/сек
Ширина : 1280 пикселей
Высота : 720 пикселей
Соотношение сторон : 16:9
Режим частоты кадров : Постоянный
Частота кадров : 23,976 (23976/1000) кадра/сек
Цветовое пространство : YUV
Субдискретизация насыщенности : 4:2:0
Битовая глубина : 8 бит
Тип развёртки : Прогрессивная
Бит/(Пиксели*Кадры) : 0.201
Размер потока : 1,39 Гбайт (96%)
Библиотека кодирования : x264 core 146 r2538 121396c
Настройки программы : cabac=1 / ref=1 / deblock=1:0:0 / analyse=0x3:0x113 / me=hex / subme=2 / psy=1 / psy_rd=1.00:0.00 / mixed_ref=0 / me_range=16 / chroma_me=1 / trellis=0 / 8x8dct=1 / cqm=0 / deadzone=21,11 / fast_pskip=1 / chroma_qp_offset=0 / threads=10 / lookahead_threads=3 / sliced_threads=0 / nr=0 / decimate=1 / interlaced=0 / bluray_compat=0 / constrained_intra=0 / bframes=3 / b_pyramid=2 / b_adapt=1 / b_bias=0 / direct=1 / weightb=1 / open_gop=0 / weightp=1 / keyint=250 / keyint_min=23 / scenecut=40 / intra_refresh=0 / rc_lookahead=10 / rc=crf / mbtree=1 / crf=18.0 / qcomp=0.60 / qpmin=0 / qpmax=69 / qpstep=4 / ip_ratio=1.40 / aq=1:1.00
Default : Да
Forced : Нет

Аудио
Идентификатор : 2
Формат : AC-3
Формат/Информация : Audio Coding 3
Расширение режима : CM (complete main)
Параметр Endianness формата : Big
Идентификатор кодека : A_AC3
Продолжительность : 44 м. 58 с.
Вид битрейта : Постоянный
Битрейт : 192 Кбит/сек
Каналы : 2 канала
Расположение каналов : Front: L R
Частота : 48,0 КГц
Частота кадров : 31,250 кадров/сек (1536 spf)
Метод сжатия : С потерями
Размер потока : 61,8 Мбайт (4%)
Default : Да
Forced : Нет

pb.wtf



Скачать Падение Ордена через торрент https://d.radikal.ru/d10/1802/7e/147616687237.jpg Скачать фильм Падение Ордена через торрент бесплантно в хорошем качестве Описание: Действие сериала разворачивается вокруг самой драгоценной и загадочной реликвии христианства — Святого Грааля, бесследно ... 7.8 10 4
Торрент: Зарегистрирован [2018-02-08 20:39] · скачан: 34 раз
Статус: √ проверено
Размер: 11.67 GB
Как cкачать? Как скачать Падение Ордена через торрент | qTorrent

% Раздел Тема Автор DL S | L
Зарубежные сериалы [ 19.31 GB ] Падение Ордена / Knightfall / Сезон: 2 / Серии: 1-8 из 8 [2019 исторический WEB-DL 1080p] 2x[MVO] killermax2013 Скачать
1 | 0
Зарубежные сериалы [ 9.64 GB ] Падение Ордена / Knightfall / Сезон: 2 / Серии: 1-4 из 10 [2019 военный WEB-DL 1080p] MVO [TVShows] bober100 Скачать
1 | 0
Зарубежные сериалы [ 40.29 GB ] Падение Ордена / Knightfall / Сезон: 1 / Серии: 1-10 из 10 [2017 военный WEBRip 1080p] MVO [NewStudio] bober100 Скачать
1 | 0
Зарубежные сериалы [ 13.92 GB ] Падение Ордена / Knightfall / Сезон: 1 / Серии: 1-10 из 10 [2017 военный WEBRip 720p] MVO [Jaskier] bober100 Скачать
1 | 0
Зарубежные сериалы [ 5.52 GB ] Падение Ордена / Knightfall / Сезон 1 / Серия 1-10 из 10 [2017 WEBRip] [MVO] killermax2013 Скачать
2 | 0
Зарубежные сериалы [ 40.49 GB ] Падение Ордена / Knightfall / Сезон: 1 / Серии 1-10 из 10 [2017 военный WEBRip 1080p] MVO [Jaskier] bober100 Скачать
1 | 0
Зарубежные сериалы [ 6.47 GB ] Падение Ордена / Knightfall / Сезон 1 / Серия 1-10 из 10 [2017 WEBRip] [MVO] [AlexFilm] killermax2013 Скачать
1 | 0

28-11-2019 20:33  

Отключить всю рекламу на сайте

08-02-2018 20:52 Падение Ордена Скачать торрент  

Сезон полностью!!!pb.wtf



08-02-2018 20:53 Падение Ордена Скачать торрент  

Осталось теперь качество и перевод дождаться😊pb.wtf



    Дорогой пользователь! Огромная просьба, поблагодарите релизера, оцените раздачу и оставьте свои комментарий, если Вы скачали Падение Ордена через торрент бесплатно! Внесите свою лепту в развитие PiratBit!
    Комментировать посты могут только пользователи прошедшие не сложную регистрацию
    Показать сообщения:    

    Падение Ордена через торрент
    Скачать бесплатно Падение Ордена
    Падение Ордена скачать торрент
    Падение Ордена смотреть онлайн
    Cкачать фильм Падение Ордена бесплатно
    Падение Ордена скачать торрент в хорошем качестве
    Падение Ордена смотреть онлайн бесплатно в хорошем качестве


    Вы не можете начинать темы
    Вы не можете отвечать на сообщения
    Вы не можете редактировать свои сообщения
    Вы не можете удалять свои сообщения
    Вы не можете голосовать в опросах
    Вы не можете прикреплять файлы к сообщениям
    Вы можете скачивать файлы