Ссылка на приватное зеркало нашего сайта всего за 1$. Внимание количество ограничено!!!

2 сезон

iTunes

1 сезон

1

2 сезон

2 сезон

iTunes

1 сезон

RePack

30

Новинка

ВАЖНО

ИГРА 18+

pack

RePack

MK11
pack

Забери бонус

RePack

jed

!!Акция!!

Alien_Rage

RePack

fifa19

RePack

Assassins Creed: Odyssey

RePack

NEED FOR SPEED™ PAYBACK

4 сезон

9 сезон

Бесстыжие 9 сезон

Все сериалы

все сериалы на PB.wtf

RePack

FAR CRY 5
  

Звёздный путь: Дискавери / Star Trek: Discovery / Сезон: 1 / Серии: 1-15 из 15 (Акива Голдсман, Адам Кэйн, Ли Роуз) [2017, Фантастика, WEB-DL 720p] MVO [Jaskier] pb.wtf

Звёздный путь: Дискавери через торрент pb.wtf

Размер: 13.55 GB | Добавлен: 2 года 9 мес. назад | Торрент скачан:19 раз
Скачать  

09-02-2018 06:36 Звёздный путь: Дискавери Скачать торрент  

Звёздный путь: Дискавери / Star Trek: DiscoveryГод выпуска: 2017
Страна: США
Жанр: Фантастика
Продолжительность: 15 x ~ 00:40:00
Перевод: Профессиональный (многоголосый) | Jaskier
Субтитры: отсутствуют

Режиссер: Акива Голдсман, Адам Кэйн, Ли Роуз

rating

В ролях:

Джейсон Айзекс, Даг Джонс, Шазад Латиф, Сонекуа Мартин-Грин, Молик Панчоли, Энтони Рэпп, Мишель Йео, Кеннет Митчелл, Дэймон Рунян

Описание:

За 10 лет до начала истории, описанной в оригинальном сериале «Звёздный путь», экипаж корабля USS Discovery NCC-1031 отправляется в путешествие, чтобы изучать глубокий космос и открыть новые миры и цивилизации.

Качество: WEB-DL 720p
Формат: MKV

Видео: X264, ~ 2700 kbps, 1280x720 (16:9), 23.976 fps
Аудио: AC3, 48,0 КГц, 6 ch, 384 kbps - Rus
скриншот   скриншот   скриншот  

Общее
Уникальный идентификатор : 216686741729808986209645070039307293400 (0xA3045933AF9719CEB409015BA10C92D8)
Полное имя : D:\Star Trek Discovery. Season 1 (WEB-DL l 720p l Jaskier)\Star.Trek.Discovery.S01E01.720p.Jaskier.mkv
Формат : Matroska
Версия формата : Version 2
Размер файла : 662 Мбайт
Продолжительность : 43 м. 31 с.
Режим общего битрейта : Переменный
Общий поток : 2127 Кбит/сек
Дата кодирования : UTC 2017-09-30 11:05:49
Программа кодирования : mkvmerge v5.8.0 ('No Sleep / Pillow') built on Sep 2 2012 15:37:04
Библиотека кодирования : libebml v1.2.3 + libmatroska v1.3.0

Видео
Идентификатор : 1
Формат : AVC
Формат/Информация : Advanced Video Codec
Профиль формата : Main@L3.1
Параметр CABAC формата : Да
Параметр ReFrames формата : 3 кадра
Идентификатор кодека : V_MPEG4/ISO/AVC
Продолжительность : 43 м. 31 с.
Вид битрейта : Переменный
Битрейт : 1780 Кбит/сек
Максимальный битрейт : 2670 Кбит/сек
Ширина : 1280 пикселей
Высота : 720 пикселей
Соотношение сторон : 16:9
Режим частоты кадров : Постоянный
Частота кадров : 23,976 (24000/1001) кадра/сек
Цветовое пространство : YUV
Субдискретизация насыщенности : 4:2:0
Битовая глубина : 8 бит
Тип развёртки : Прогрессивная
Бит/(Пиксели*Кадры) : 0.081
Размер потока : 529 Мбайт (80%)
Библиотека кодирования : x264 core 148
Настройки программы : cabac=1 / ref=3 / deblock=1:0:0 / analyse=0x1:0x111 / me=umh / subme=10 / psy=1 / psy_rd=1.00:0.00 / mixed_ref=1 / me_range=24 / chroma_me=1 / trellis=2 / 8x8dct=0 / cqm=0 / deadzone=21,11 / fast_pskip=1 / chroma_qp_offset=-2 / threads=8 / lookahead_threads=1 / sliced_threads=0 / nr=0 / decimate=1 / interlaced=0 / bluray_compat=0 / stitchable=1 / constrained_intra=0 / bframes=2 / b_pyramid=0 / b_adapt=2 / b_bias=0 / direct=3 / weightb=1 / open_gop=0 / weightp=2 / keyint=48 / keyint_min=25 / scenecut=0 / intra_refresh=0 / rc_lookahead=48 / rc=2pass / mbtree=1 / bitrate=1780 / ratetol=1.0 / qcomp=0.50 / qpmin=6 / qpmax=51 / qpstep=4 / cplxblur=20.0 / qblur=0.5 / vbv_maxrate=2670 / vbv_bufsize=3560 / nal_hrd=vbr / filler=0 / ip_ratio=1.40 / aq=1:1.00
Язык : English
Default : Да
Forced : Нет

Аудио
Идентификатор : 2
Формат : AC-3
Формат/Информация : Audio Coding 3
Расширение режима : CM (complete main)
Параметр Endianness формата : Big
Идентификатор кодека : A_AC3
Продолжительность : 43 м. 31 с.
Вид битрейта : Постоянный
Битрейт : 384 Кбит/сек
Каналы : 6 каналов
Расположение каналов : Front: L C R, Side: L R, LFE
Частота : 48,0 КГц
Частота кадров : 31,250 кадров/сек (1536 spf)
Метод сжатия : С потерями
Размер потока : 120 Мбайт (18%)
Язык : Russian
Default : Да
Forced : Нет

Когда раздача ведётся путём добавления новых серий, при каждом добавлении создётся новый торрент. Чтобы начать докачку новой серии, пользователям необходимо сделать следующее:
(1) остановить скачивание,
(2) удалить старый торрент у себя из клиента (старые серии удалять не надо),
(3) скачать новый торрент и запустить его у себя в клиенте вместо старого, при этом указать клиенту путь в старую папку, куда и должно происходить скачивание новых серий.
Ваш клиент при этом должен произвести хеширование (проверку) старой папки (если не производит сам - помогите ему сделать это), и будет докачивать только те серии, которых у вас ещё нет. Старые серии при этом не удаляются, а продолжают раздаваться!
Eсли вы уже удалили старые серии, то предотвратить повторную закачку старых серий можно, отжав галочку в соответсвующих местах при запуске нового торрента. По возможности, желательно не удалять старые серии как можно дольше, чтобы релизёр не столько продолжал раздавать старые серии, а смог сконцентрироваться на новых.
pb.wtf



Скачать Звёздный путь: Дискавери через торрент http://i89.fastpic.ru/big/2017/0928/93/832f84854eee91eec34934a645f6a293.png Скачать фильм Звёздный путь: Дискавери через торрент бесплантно в хорошем качестве Описание: За 10 лет до начала истории, описанной в оригинальном сериале «Звёздный путь», экипаж корабля USS Discovery NCC-1031 отправляется ... 10 10 5
Торрент: Зарегистрирован [2018-02-15 20:39] · скачан: 19 раз
Статус: √ проверено
Размер: 13.55 GB
Как cкачать? Как скачать Звёздный путь: Дискавери через торрент | qTorrent

% Раздел Тема Автор DL S | L
Зарубежные сериалы [ 24.4 GB ] Звёздный путь: Дискавери / Star Trek: Discovery / Сезон: 2 / Серии: 1-7 из 15 [2019 WEB-DL 1080p] MVO [Jaskier] bober100 Скачать
1 | 0
Зарубежные сериалы [ 9.65 GB ] Звёздный путь: Дискавери / Star Trek: Discovery / Сезон: 1 / Серии: 1-15 из 15 [2017 WEB-DLRip] MVO [Lostfilm] bober100 Скачать
2 | 0
Зарубежные сериалы [ 148.51 GB ] Звёздный путь: Дискавери / Star Trek: Discovery / Сезон: 1 / Серии: 1-15 из 15 [2017 BD Remux 1080p] 2xMVO [SDI Media LostFilm] bober100 Скачать
1 | 0
Зарубежные сериалы [ 25.27 GB ] Звёздный путь: Дискавери / Star Trek: Discovery / Сезон 1 / Серии 1-15 из 15 [2017 WEB-DLRip 1080p] [MVO] killermax2013 Скачать
1 | 0
Зарубежные сериалы [ 8.33 GB ] Звёздный путь: Дискавери / Star Trek: Discovery / Сезон 1 / Серии 1-15 из 15 [2017 WEBRip] [MVO] killermax2013 Скачать
1 | 0
Зарубежные сериалы [ 7.68 GB ] Звёздный путь: Дискавери / Star Trek: Discovery / Сезон: 1 / Серии: 1-15 из 15 [2017 WEBRip] DVO [Gears Media] bober100 Скачать
1 | 0
Зарубежные сериалы [ 28.7 GB ] Звёздный путь: Дискавери / Star Trek: Discovery / Сезон: 1 / Серии: 1-15 из 15 [2017 WEB-DL 1080p] MVO [LostFilm] bober100 Скачать
1 | 0

28-11-2019 20:33  

Отключить всю рекламу на сайте

    Дорогой пользователь! Огромная просьба, поблагодарите релизера, оцените раздачу и оставьте свои комментарий, если Вы скачали Звёздный путь: Дискавери через торрент бесплатно! Внесите свою лепту в развитие PiratBit!
    Комментировать посты могут только пользователи прошедшие не сложную регистрацию
    Показать сообщения:    

    Звёздный путь: Дискавери через торрент
    Скачать бесплатно Звёздный путь: Дискавери
    Звёздный путь: Дискавери скачать торрент
    Звёздный путь: Дискавери смотреть онлайн
    Cкачать фильм Звёздный путь: Дискавери бесплатно
    Звёздный путь: Дискавери скачать торрент в хорошем качестве
    Звёздный путь: Дискавери смотреть онлайн бесплатно в хорошем качестве


    Вы не можете начинать темы
    Вы не можете отвечать на сообщения
    Вы не можете редактировать свои сообщения
    Вы не можете удалять свои сообщения
    Вы не можете голосовать в опросах
    Вы не можете прикреплять файлы к сообщениям
    Вы можете скачивать файлы