Ссылка на приватное зеркало всего за 1$. Внимание количество ограничено!!!

OK

1+1

iTunes

мы

OK

1

WEB-DLRip

Джокер

Пифагор

Ведьмак / The Witcher сериал

iTunes

ПШазам

ОК

Оно 2

iTunes

30
pack

Вам бонус

ВАЖНО

!!Акция!!

Alien_RageХит недели

RePack

Resident Evil 21

ИГРА 18+

pack

RePack

jed

RePack

fifa19

RePack

Assassins Creed: Odyssey

RePack

NEED FOR SPEED™ PAYBACK

4 сезон

9 сезон

Бесстыжие 9 сезон

Все сериалы

все сериалы на PB.wtf

RePack

FAR CRY 5
  

Мой бывший – Сталкер / Stalked By My Ex (Дэнни Дж. Бойл) [2017, триллер, драма, WEB-DL 720p] MVO ["Синема УС"] pb.wtf

Мой бывший – Сталкер через торрент pb.wtf

Размер: 2.95 GB | Добавлен: 1 год 11 мес. назад | Торрент скачан:15 раз
Скачать  

09-02-2018 07:08 Мой бывший – Сталкер Скачать торрент  

Мой бывший – Сталкер / Stalked By My ExГод выпуска: 2017
Страна: США
Жанр: триллер, драма
Продолжительность: 01:27:16
Перевод: Любительский (многоголосый) ["Синема УС"]
Субтитры: отсутствуют

Режиссер: Дэнни Дж. Бойл

rating

В ролях:

Тамара Браун, Ив Брайт, Брити Рэтледж, Лора Каннингэм, Кэт Сойер-Янг, Скотт Такеда, Джин Эффрон, Лесли Флемминг

Описание:

Психически неуравновешенный бывший муж Хлои десять лет проводит в тюрьме, но его досрочно освобождают за хорошее поведение. Когда об этому узнает Хлои, она берет свою дочь-подростка Оливию и уезжает в свой родной маленький город, в надежде, что бывший муж не найдет их там. Но к ее огорчению, он разыскивает их и увозит дочь в неизвестном направлении. На что пойдет Хлои, чтобы вернуть и защитить свою дочь?

Качество: WEB-DL 720p
Формат: MKV
Видео кодек: H.264
Аудио кодек: AC3

Видео: 4460 Кбит/с, 1280x720
Аудио#1: AC3, 2 ch, 384 Кбит/с

скриншот  скриншот  скриншот  

Общее
Уникальный идентификатор : 185503399915461992628897596603416108343 (0x8B8EA7BFA9851CFEB4A67BBC1C86DD37)
Полное имя : D:\Stalked.By.My.Ex.2017.P.WEB-DL.72Op_KOSHARA.mkv
Формат : Matroska
Версия формата : Version 2
Размер файла : 2,95 Гбайт
Продолжительность : 1 ч. 27 м.
Режим общего битрейта : Переменный
Общий поток : 4846 Кбит/сек
Дата кодирования : UTC 2018-02-08 14:01:41
Программа кодирования : mkvmerge v8.3.0 ('Over the Horizon') 64bit
Библиотека кодирования : libebml v1.3.1 + libmatroska v1.4.2

Видео
Идентификатор : 1
Формат : AVC
Формат/Информация : Advanced Video Codec
Профиль формата : High@L4.1
Параметр CABAC формата : Да
Параметр ReFrames формата : 4 кадра
Идентификатор кодека : V_MPEG4/ISO/AVC
Продолжительность : 1 ч. 27 м.
Вид битрейта : Переменный
Битрейт : 4460 Кбит/сек
Максимальный битрейт : 5000 Кбит/сек
Ширина : 1280 пикселей
Высота : 720 пикселей
Соотношение сторон : 16:9
Режим частоты кадров : Постоянный
Частота кадров : 23,976 (24000/1001) кадра/сек
Стандарт вещания : Component
Цветовое пространство : YUV
Субдискретизация насыщенности : 4:2:0
Битовая глубина : 8 бит
Тип развёртки : Прогрессивная
Бит/(Пиксели*Кадры) : 0.198
Размер потока : 2,66 Гбайт (90%)
Default : Да
Forced : Нет
Цветовой диапазон : Limited
Основные цвета : BT.709
Характеристики трансфера : BT.709
Коэффициенты матрицы : BT.709

Аудио
Идентификатор : 2
Формат : AC-3
Формат/Информация : Audio Coding 3
Расширение режима : CM (complete main)
Параметр Endianness формата : Big
Идентификатор кодека : A_AC3
Продолжительность : 1 ч. 27 м.
Вид битрейта : Постоянный
Битрейт : 384 Кбит/сек
Каналы : 2 канала
Расположение каналов : Front: L R
Частота : 48,0 КГц
Частота кадров : 31,250 кадров/сек (1536 spf)
Метод сжатия : С потерями
Размер потока : 240 Мбайт (8%)
Default : Да
Forced : Нет

pb.wtf



Скачать Мой бывший – Сталкер через торрент http://img12.lostpic.net/2018/02/09/b3369b7640c3f5675d5d4bfa18625dbe.jpg Скачать фильм Мой бывший – Сталкер через торрент бесплантно в хорошем качестве Описание: Психически неуравновешенный бывший муж Хлои десять лет проводит в тюрьме, но его досрочно освобождают за хорошее поведение. Когда ... 9.8 10 5
Торрент: Зарегистрирован [2018-02-09 07:08] · скачан: 15 раз
Статус: T временная
Размер: 2.95 GB
Как cкачать? Как скачать Мой бывший – Сталкер через торрент | qTorrent

% Раздел Тема Автор DL S | L
T Фильмы (мультфильмы) cо спонсором показа (Новинки AVI/MKV) [ 1.37 GB ] Мой бывший – Сталкер / Stalked By My Ex [2017 WEB-DLRip] MVO ["Синема УС"] bober100 Скачать
1 | 0

28-11-2019 20:33  

Отключить всю рекламу на сайте

09-02-2018 07:47 Мой бывший – Сталкер Скачать торрент  

нормальный перевод названия плизpb.wtf



09-02-2018 07:52 Мой бывший – Сталкер Скачать торрент  

Меченый или Дегтярев?)pb.wtf



09-02-2018 08:01 Мой бывший – Сталкер Скачать торрент  

Disеl писал(а):

Меченый или Дегтярев?)

Сидорович:Dpb.wtf



09-02-2018 09:26 Мой бывший – Сталкер Скачать торрент  

нууу... это еще адекватно. гугль транслейт ваще предложил вариант "Преследуемый моим взрывом"))) ну а если серьезно, то перевести можно примерно как "Преследуемая моим бывшим"pb.wtf



09-02-2018 10:23 Мой бывший – Сталкер Скачать торрент  

Ну более правильно будет так "Преследуюсь своим бывшим".pb.wtf



12-02-2018 12:40 Мой бывший – Сталкер Скачать торрент  

Infernales писал(а):

Ну более правильно будет так "Преследуюсь своим бывшим".

но это звучит совсем уж дико, хоть и дословно)pb.wtf



    Дорогой пользователь! Огромная просьба, поблагодарите релизера, оцените раздачу и оставьте свои комментарий, если Вы скачали Мой бывший – Сталкер через торрент бесплатно! Внесите свою лепту в развитие PiratBit!
    Комментировать посты могут только пользователи прошедшие не сложную регистрацию
    Показать сообщения:    

    Мой бывший – Сталкер через торрент
    Скачать бесплатно Мой бывший – Сталкер
    Мой бывший – Сталкер скачать торрент
    Мой бывший – Сталкер смотреть онлайн
    Cкачать фильм Мой бывший – Сталкер бесплатно
    Мой бывший – Сталкер скачать торрент в хорошем качестве
    Мой бывший – Сталкер смотреть онлайн бесплатно в хорошем качестве


    Вы не можете начинать темы
    Вы не можете отвечать на сообщения
    Вы не можете редактировать свои сообщения
    Вы не можете удалять свои сообщения
    Вы не можете голосовать в опросах
    Вы не можете прикреплять файлы к сообщениям
    Вы можете скачивать файлы