новый адрес
Ссылка на приватное зеркало всего за 1$. Внимание количество ограничено!!!

iTunes

1+1

iTunes

мы

WEB-DL

1

iTunes

Чернобыль

iTunes

Ральф против интернета

Лицензия

ПШазам

Лицензия

Оно 2

Лицензия

30
pack

Вам бонус

ВАЖНО

!!Акция!!

Alien_RageХит недели

RePack

Resident Evil 21

ИГРА 18+

pack

RePack

jed

!!Акция!!

Alien_Rage

RePack

fifa19

RePack

Assassins Creed: Odyssey

RePack

NEED FOR SPEED™ PAYBACK

3 сезон

9 сезон

Бесстыжие 9 сезон

Все сериалы

все сериалы на PB.wtf

RePack

FAR CRY 5
Ребята, катастрофически не хватает 1900р. для оплаты серверов за Октябрь (всвязи с блокировками трафик упал в 3 раза), 1-2р., выручайте.
  

Парни из Трейлерпарка: Обратный отсчет до запоя / Trailer Park Boys: Countdown to Liquor Day (Майк Клаттенбёрг) [2009 г, комедия, криминал, BDRip] AVO pb.wtf

Парни из Трейлерпарка: Обратный отсчет до запоя через торрент pb.wtf

Размер: 1.45 GB | Добавлен: 1 год 9 мес. назад | Торрент скачан:34 раза
Скачать  

09-02-2018 14:19 Парни из Трейлерпарка: Обратный отсчет до запоя Скачать торрент  

Парни из Трейлерпарка: Обратный отсчет до запоя / Trailer Park Boys: Countdown to Liquor Day
Год выпуска: 2009
Страна: Канада
Жанр: комедия, криминал
Продолжительность: 01:42:16
Перевод: Авторский (Яроцкий)
Присутствует ненормативная лексика.

Режиссер: Майк Клаттенбёрг

rating

В ролях: Робб Уэллсб, Джон Пол Тремблэ, Майк Смит, Джон Дансворт, Джонатан Торренс, Патрик Роач, Люси Декутер, Сара Дансворт, Бэрри Данн, Тайрон Парсонс

Описание: Рикки, Джулиан и Бабблс возвращаются из тюрьмы и обнаруживают, что их любимый парк совсем запущен, а под боком появился какой-то совершенно новый Трейлер-Парк. С помощью быстрых схем и ограблений они пытаются разбогатеть, в то время как вновь ушедший в запой участковый Лейхи угрожает сорвать все их планы.

Качество: BDRip (Trailer Park Boys Countdown to Liquor Day / blu-ray)
Видео: XviD, 1637 Kбит/с, 720x400, 23.976 Кадр/с
Аудио: AC3, 2 ch, 192 Кбит/с
Релиз от: Koenig
скриншот   скриншот   скриншот   скриншот   скриншот   скриншот  

Общее
Полное имя : Trailer.Park.Boys.Countdown.to.Liquor.Day.2009.BDRip.avi
Формат : AVI
Формат/Информация : Audio Video Interleave
Размер файла : 1,45 Гбайт
Продолжительность : 1 ч. 42 м.
Общий поток : 2030 Кбит/сек
Программа кодирования : VirtualDubMod 1.5.10.2 (build 2540/release)
Библиотека кодирования : VirtualDubMod build 2540/release

Видео
Идентификатор : 0
Формат : MPEG-4 Visual
Профиль формата : Advanced Simple@L5
Параметр BVOP формата : 1
Параметр QPel формата : Нет
Параметр GMC формата : Без точки перехода
Параметр матрицы формата : Выборочная
Идентификатор кодека : XVID
Идентификатор кодека/Подсказка : XviD
Продолжительность : 1 ч. 42 м.
Битрейт : 1637 Кбит/сек
Ширина : 720 пикселей
Высота : 400 пикселей
Соотношение сторон : 16:9
Частота кадров : 23,976 (24000/1001) кадра/сек
Цветовое пространство : YUV
Субдискретизация насыщенности : 4:2:0
Битовая глубина : 8 бит
Тип развёртки : Прогрессивная
Метод сжатия : С потерями
Бит/(Пиксели*Кадры) : 0.237
Размер потока : 1,17 Гбайт (81%)
Библиотека кодирования : XviD 65

Аудио
Идентификатор : 1
Формат : AC-3
Формат/Информация : Audio Coding 3
Параметр Endianness формата : Big
Идентификатор кодека : 2000
Продолжительность : 1 ч. 42 м.
Вид битрейта : Постоянный
Битрейт : 384 Кбит/сек
Каналы : 6 каналов
Расположение каналов : Front: L C R, Side: L R, LFE
Частота : 48,0 КГц
Частота кадров : 31,250 кадров/сек (1536 spf)
Битовая глубина : 16 бит
Метод сжатия : С потерями
Размер потока : 281 Мбайт (19%)
Выравнивание : Разделение по промежуткам
Продолжительность промежутка : 42 мс. (1,00 видеокадр)
Время предзагрузки промежутка : 500 мс.
ServiceKind/String : Complete Main

pb.wtf



Скачать Парни из Трейлерпарка: Обратный отсчет до запоя через торрент http://img12.lostpic.net/2018/02/09/b3fa46ea1d54f6d19230763e62dec370.jpg Скачать фильм Парни из Трейлерпарка: Обратный отсчет до запоя через торрент бесплантно в хорошем качестве Описание: Рикки, Джулиан и Бабблс возвращаются из тюрьмы и обнаруживают, что их любимый парк совсем запущен, а под боком появился какой-то ... 5 10 1
Торрент: Зарегистрирован [2018-02-09 14:19] · скачан: 34 раз
Статус: √ проверено
Размер: 1.45 GB
Как cкачать? Как скачать Парни из Трейлерпарка: Обратный отсчет до запоя через торрент | qTorrent

28-11-2019 20:33  

Отключить всю рекламу на сайте


    Дорогой пользователь! Огромная просьба, поблагодарите релизера, оцените раздачу и оставьте свои комментарий, если Вы скачали Парни из Трейлерпарка: Обратный отсчет до запоя через торрент бесплатно! Внесите свою лепту в развитие PiratBit!
    Комментировать посты могут только пользователи прошедшие не сложную регистрацию
    Показать сообщения:    

    Парни из Трейлерпарка: Обратный отсчет до запоя через торрент
    Скачать бесплатно Парни из Трейлерпарка: Обратный отсчет до запоя
    Парни из Трейлерпарка: Обратный отсчет до запоя скачать торрент
    Парни из Трейлерпарка: Обратный отсчет до запоя смотреть онлайн
    Cкачать фильм Парни из Трейлерпарка: Обратный отсчет до запоя бесплатно
    Парни из Трейлерпарка: Обратный отсчет до запоя скачать торрент в хорошем качестве
    Парни из Трейлерпарка: Обратный отсчет до запоя смотреть онлайн бесплатно в хорошем качестве


    Вы не можете начинать темы
    Вы не можете отвечать на сообщения
    Вы не можете редактировать свои сообщения
    Вы не можете удалять свои сообщения
    Вы не можете голосовать в опросах
    Вы не можете прикреплять файлы к сообщениям
    Вы можете скачивать файлы