новый адрес
Ссылка на приватное зеркало всего за 1$. Внимание количество ограничено!!!

iTunes

1+1

iTunes

мы

WEB-DL

1

iTunes

Чернобыль

iTunes

Ральф против интернета

Лицензия

ПШазам

Лицензия

Оно 2

Лицензия

30
pack

Вам бонус

ВАЖНО

!!Акция!!

Alien_RageХит недели

RePack

Resident Evil 21

ИГРА 18+

pack

RePack

jed

!!Акция!!

Alien_Rage

RePack

fifa19

RePack

Assassins Creed: Odyssey

RePack

NEED FOR SPEED™ PAYBACK

3 сезон

9 сезон

Бесстыжие 9 сезон

Все сериалы

все сериалы на PB.wtf

RePack

FAR CRY 5
Ребята, катастрофически не хватает 1900р. для оплаты серверов за Октябрь (всвязи с блокировками трафик упал в 3 раза), 1-2р., выручайте.
  

Парадокс Кловерфилда / The Cloverfield Paradox (Джулиус Она / Julius Onah) [2018, ужасы, фантастика, триллер, WEBRip-AVC] MVO (BaibaKo) pb.wtf

Парадокс Кловерфилда через торрент pb.wtf

Размер: 2.18 GB | Добавлен: 1 год 10 мес. назад | Торрент скачан:533 раза
Скачать  

09-02-2018 17:49 Парадокс Кловерфилда Скачать торрент  

Парадокс Кловерфилда
The Cloverfield Paradox

«The Future Unleashed... Every Thing»


Страна: США
Жанр: ужасы, фантастика, триллер, детектив
Год выпуска: 2018
Продолжительность: 01:42:26

Перевод: Профессиональный (многоголосый, закадровый) [BaibaKo]
Субтитры: русские (полные), английские (форсированные, полные, SDH)
Оригинальная аудиодорожка: английский

Режиссер: Джулиус Она / Julius Onah

В ролях: Гугу Эмбата-Ро, Дэвид Ойелоуо, Даниэль Брюль, Крис О’Дауд, Аксель Хенни, Чжан Цзыи, Элизабет Дебики, Роджер Дейвис, Джон Ортис, Jordan Rivera

Описание:
В то время как земной мир пребывает на грани войны за ресурсы, в космосе группа учёных проводит испытания устройства, которое способно решить проблему энергетического кризиса. Несколько неудачных попыток вводят учёных в отчаяние. Топлива осталось на три запуска, и когда вдруг происходит удачный запуск устройства, радость длится недолго - команде предстоит иметь дело с очень странными явлениями.
События, о которых рассказывается в фильме, произошли до событий, описанных в фильме Мэтта Ривза «Монстро» (2008).



Релиз:

Автор рипа: stalkerok | Моя группа

Сэмпл

Качество видео: WEBRip-AVC [The.Cloverfield.Paradox.2018.iNTERNAL.1080p.WEB.x264-STRiFE]
Формат видео: MKV
Видео кодек: AVC
Аудио кодек: AC3
Видео: 2153 Кбит/сек, 1150x478 (2.40:1), 23,976 кадр/сек, AVC
Аудио #1: русский, 448 Кбит/сек, 48 КГц, 5.1, AC3
Аудио #2: английский, 448 Кбит/сек, 48 КГц, 5.1, AC3

---[Information] [07.02.2018 14:54:04] x264 [info]: frame I:1186 Avg QP:14.25 size: 62985
---[Information] [07.02.2018 14:54:04] x264 [info]: frame P:32582 Avg QP:18.17 size: 23824
---[Information] [07.02.2018 14:54:04] x264 [info]: frame B:113601 Avg QP:19.74 size: 7071

Общее
Уникальный идентификатор : 227658272120747543952585154989414494968 (0xAB45636A0503D0F28200CFE00ED932F8)
Полное имя : M:\$new\The Cloverfield Paradox\The.Cloverfield.Paradox.2018.WEBRip-AVC.MVO.RUS.ENG.stalkerok.new-team.mkv
Формат : Matroska
Версия формата : Version 4 / Version 2
Размер файла : 2,18 Гбайт
Продолжительность : 1 ч. 42 м.
Общий поток : 3046 Кбит/сек
Название фильма : The Cloverfield Paradox (2018) (Rip by stalkerok)
Дата кодирования : UTC 2018-02-09 17:05:03
Программа кодирования : mkvmerge v8.6.1 ('Flying') 64bit
Библиотека кодирования : libebml v1.3.3 + libmatroska v1.4.4

Видео
Идентификатор : 3
Формат : AVC
Формат/Информация : Advanced Video Codec
Профиль формата : High@L4.1
Параметр CABAC формата : Да
Параметр ReFrames формата : 12 кадров
Идентификатор кодека : V_MPEG4/ISO/AVC
Продолжительность : 1 ч. 42 м.
Битрейт : 2153 Кбит/сек
Ширина : 1150 пикселей
Высота : 478 пикселей
Соотношение сторон : 2,40:1
Режим частоты кадров : Постоянный
Частота кадров : 23,976 (24000/1001) кадра/сек
Цветовое пространство : YUV
Субдискретизация насыщенности : 4:2:0
Битовая глубина : 8 бит
Тип развёртки : Прогрессивная
Бит/(Пиксели*Кадры) : 0.163
Размер потока : 1,54 Гбайт (71%)
Заголовок : The Cloverfield Paradox (2018) (Rip by stalkerok)
Библиотека кодирования : x264 core 152 r2851kMod ba24899
Настройки программы : cabac=1 / ref=12 / deblock=1:-2:-1 / analyse=0x3:0x133 / me=umh / subme=10 / psy=1 / fade_compensate=0.00 / psy_rd=1.00:0.00 / mixed_ref=1 / me_range=32 / chroma_me=1 / trellis=2 / 8x8dct=1 / cqm=0 / deadzone=21,11 / fast_pskip=0 / chroma_qp_offset=-2 / threads=12 / lookahead_threads=3 / sliced_threads=0 / nr=0 / decimate=0 / interlaced=0 / bluray_compat=0 / constrained_intra=0 / bframes=14 / b_pyramid=2 / b_adapt=2 / b_bias=0 / direct=3 / weightb=1 / open_gop=0 / weightp=2 / keyint=240 / keyint_min=23 / scenecut=40 / intra_refresh=0 / rc_lookahead=60 / rc=2pass / mbtree=0 / bitrate=2153 / ratetol=1.0 / qcomp=0.65 / qpmin=0 / qpmax=69 / qpstep=4 / cplxblur=20.0 / qblur=0.5 / vbv_maxrate=50000 / vbv_bufsize=62500 / nal_hrd=none / filler=0 / ip_ratio=1.40 / pb_ratio=1.30 / aq=3:0.80 / zones=138661,147368,q=30
Default : Да
Forced : Нет

Аудио #1
Идентификатор : 1
Формат : AC-3
Формат/Информация : Audio Coding 3
Расширение режима : CM (complete main)
Параметр Endianness формата : Big
Идентификатор кодека : A_AC3
Продолжительность : 1 ч. 41 м.
Вид битрейта : Постоянный
Битрейт : 448 Кбит/сек
Каналы : 6 каналов
Расположение каналов : Front: L C R, Side: L R, LFE
Частота : 48,0 КГц
Частота кадров : 31,250 кадров/сек (1536 spf)
Метод сжатия : С потерями
Размер потока : 326 Мбайт (15%)
Заголовок : BaibaKo
Язык : Russian
Default : Да
Forced : Нет

Аудио #2
Идентификатор : 4
Формат : E-AC-3
Формат/Информация : Audio Coding 3
Параметр Endianness формата : Big
Идентификатор кодека : A_EAC3
Продолжительность : 1 ч. 41 м.
Вид битрейта : Постоянный
Битрейт : 448 Кбит/сек
Каналы : 6 каналов
Расположение каналов : Front: L C R, Side: L R, LFE
Частота : 48,0 КГц
Частота кадров : 187,500 кадров/сек (256 spf)
Метод сжатия : С потерями
Размер потока : 326 Мбайт (15%)
Язык : English
Default : Нет
Forced : Нет

Текст #1
Идентификатор : 2
Формат : UTF-8
Идентификатор кодека : S_TEXT/UTF8
Идентификатор кодека/Информация : UTF-8 Plain Text
Продолжительность : 1 ч. 39 м.
Битрейт : 76 бит/сек
Count of elements : 1166
Размер потока : 55,7 Кбайт (0%)
Заголовок : перевод Physkids
Язык : Russian
Default : Нет
Forced : Нет

Текст #2
Идентификатор : 5
Формат : UTF-8
Идентификатор кодека : S_TEXT/UTF8
Идентификатор кодека/Информация : UTF-8 Plain Text
Продолжительность : 47 м.
Битрейт : 3 бит/сек
Count of elements : 39
Размер потока : 1,23 Кбайт (0%)
Заголовок : Forced
Язык : English
Default : Нет
Forced : Нет

Текст #3
Идентификатор : 6
Формат : UTF-8
Идентификатор кодека : S_TEXT/UTF8
Идентификатор кодека/Информация : UTF-8 Plain Text
Продолжительность : 1 ч. 35 м.
Битрейт : 47 бит/сек
Count of elements : 1123
Размер потока : 33,5 Кбайт (0%)
Язык : English
Default : Нет
Forced : Нет

Текст #4
Идентификатор : 7
Формат : UTF-8
Идентификатор кодека : S_TEXT/UTF8
Идентификатор кодека/Информация : UTF-8 Plain Text
Продолжительность : 1 ч. 36 м.
Битрейт : 59 бит/сек
Count of elements : 1399
Размер потока : 41,9 Кбайт (0%)
Заголовок : SDH
Язык : English
Default : Нет
Forced : Нет
скриншот   скриншот   скриншот   скриншот   скриншот   скриншот   скриншот  
pb.wtf



Скачать Парадокс Кловерфилда через торрент http://i6.imageban.ru/out/2017/09/18/2ff75c0c358795c5946784cc1680714d.png Скачать фильм Парадокс Кловерфилда через торрент бесплантно в хорошем качестве Описание:В то время как земной мир пребывает на грани войны за ресурсы, в космосе группа учёных проводит испытания устройства, которое ... 6.8 10 8
Info! Золотая раздача, скачанное не засчитывается.
Торрент: Зарегистрирован [2018-02-09 17:49] · скачан: 533 раз
Статус: √ проверено
Размер: 2.18 GB
Как cкачать? Как скачать Парадокс Кловерфилда через торрент | qTorrent

% Раздел Тема Автор DL S | L
Фильмы (HD 720p, 1080p) (48-60 fps) [ 15.3 GB ] Парадокс Кловерфилда / The Cloverfield Paradox [2018 BDRip 1080p 60 fps] 3xMVO sheker187 Скачать
1 | 0
Фильмы (Blu-ray, BD-Remux, HDDVD) [ 22.81 GB ] Парадокс Кловерфилда / The Cloverfield Paradox [2018 Blu-Ray Remux 1080p] 3xMVO Леонид Ильич Скачать
1 | 0
Фильмы 2018 [DVDrip, WEB-DLRip, HDrip] (DUB, MVO) [ 1.46 GB ] Парадокс Кловерфилда / The Cloverfield Paradox [2018 WEBRip-AVC] MVO sokol_ok Скачать
2 | 0
Фильмы 2018 [DVDrip, WEB-DLRip, HDrip] (DUB, MVO) [ 1.46 GB ] Парадокс Кловерфилда / The Cloverfield Paradox [2018 WEBRip] MVO [NewStudio] Twi7ter Скачать
5 | 0
T Фильмы (мультфильмы) cо спонсором показа (Новинки AVI/MKV) [ 3.71 GB ] Парадокс Кловерфилда / The Cloverfield Paradox [2018 WEBRip 720p] MVO [Jaskier] bober100 Скачать
1 | 0
T Фильмы (мультфильмы) cо спонсором показа (Новинки AVI/MKV) [ 8.11 GB ] Парадокс Кловерфилда / The Cloverfield Paradox [2018 WEBRip 1080p] MVO [Jaskier] bober100 Скачать
2 | 0
T Фильмы (мультфильмы) cо спонсором показа (Новинки AVI/MKV) [ 1.46 GB ] Парадокс Кловерфилда / The Cloverfield Paradox [2018 WEBRip] MVO [Jaskier] bober100 Скачать
1 | 0

28-11-2019 20:33  

Отключить всю рекламу на сайте

09-02-2018 19:27 Парадокс Кловерфилда Скачать торрент  

я конечно извиняюсь если кого не устраивает мое мнение,
но после просмотра семпла, отменил загрузку, профессиональный многоголосый закадровый,
халтурка, не ну конечно за халяву низкий поклон pb.wtf



11-02-2018 11:34 Парадокс Кловерфилда Скачать торрент  

Боливуд...pb.wtf



    Дорогой пользователь! Огромная просьба, поблагодарите релизера, оцените раздачу и оставьте свои комментарий, если Вы скачали Парадокс Кловерфилда через торрент бесплатно! Внесите свою лепту в развитие PiratBit!
    Комментировать посты могут только пользователи прошедшие не сложную регистрацию
    Показать сообщения:    

    Парадокс Кловерфилда через торрент
    Скачать бесплатно Парадокс Кловерфилда
    Парадокс Кловерфилда скачать торрент
    Парадокс Кловерфилда смотреть онлайн
    Cкачать фильм Парадокс Кловерфилда бесплатно
    Парадокс Кловерфилда скачать торрент в хорошем качестве
    Парадокс Кловерфилда смотреть онлайн бесплатно в хорошем качестве


    Вы не можете начинать темы
    Вы не можете отвечать на сообщения
    Вы не можете редактировать свои сообщения
    Вы не можете удалять свои сообщения
    Вы не можете голосовать в опросах
    Вы не можете прикреплять файлы к сообщениям
    Вы можете скачивать файлы