Мега распродажа FORZA HORIZON 4 ULTIMATE+ВСЕ DLC+ОНЛАЙН всего за 499р. 349 руб. (супер цена). Внимание количество ограничено!!!

iTunes

1+1

iTunes

мы

iTunes

1

iTunes

Чернобыль

1 сезон

Ральф против интернета

Лицензия

ПШазам

Лицензия

Игра престолов

Лицензия

30
pack

ВАЖНО

!!Акция!!

Alien_RageХит недели

RePack

Resident Evil 21

ИГРА 18+

pack

RePack

Metro:Exodus

!!Акция!!

Alien_Rage

RePack

fifa19

RePack

Assassins Creed: Odyssey

RePack

NEED FOR SPEED™ PAYBACK

3 сезон

9 сезон

Бесстыжие 9 сезон

Все сериалы

все сериалы на PB.wtf

RePack

FAR CRY 5
Ребята, катастрофически не хватает 7730р. для оплаты серверов за ИЮЛЬ (всвязи с блокировками трафик упал в 3 раза), 1-2р., выручайте.
  

Бойтесь ходячих мертвецов / Fear the Walking Dead / Сезон: 3 / Серии: 1-16 из 16 (Адам Дэвидсон, Кари Скогланд, Стефан Шварц) [2017, ужасы, драма, BDRip 720p] MVO [Jaskier] pb.wtf

Бойтесь ходячих мертвецов через торрент pb.wtf

Размер: 33.78 GB | Добавлен: 1 год 6 мес. назад | Торрент скачан:31 раз
Скачать  

10-02-2018 01:47 Бойтесь ходячих мертвецов Скачать торрент  

Бойтесь ходячих мертвецов / Fear the Walking DeadГод выпуска: 2017
Страна: США
Жанр: ужасы, драма
Продолжительность: ~ 00:44:00
Перевод: Профессиональный (многоголосый) | Jaskier
Субтитры: английские (форсед, полные)

Режиссер: Адам Дэвидсон, Кари Скогланд, Стефан Шварц

rating

В ролях:

Клифф Кёртис, Ким Диккенс, Алисия Дебнем-Кери, Фрэнк Диллэйн, Рубен Блэйдс, Мерседес Масон, Колман Доминго, Лоренцо Джеймс Хенри, Элизабет Родригес, Тони Френч

Описание:

Действия сериала происходят параллельно с событиями зомби-апокалипсиса, показанными в сериале «Ходячие мертвецы», но в совершенно другом месте — Лос-Анджелесе. В центре сюжета находится семья матери-одиночки и консультанта по профессиям Мэдисон Кларк и разведённого учителя Трэвиса Манавы, которые вместе пытаются выжить в зомби-апокалипсисе.

Качество: BDRip 720p
Формат: MKV

Видео: X264, ~ 5000 kbps, 1280x720 (16:9), 23.976 fps
Аудио#1: AC3, 48,0 КГц, 6 ch, 640 kbps - RUS
Аудио#2: AC3, 48,0 КГц, 6 ch, 640 kbps - ENG
скриншот   скриншот   скриншот  

Общее
Уникальный идентификатор : 220869114030428632230194912071577527432 (0xA629D813ABA679A79A13EED3EFA86488)
Полное имя : D:\Fear the Walking Dead. Season 3 (BDRip l 720p l Jaskier)\Fear.the.Walking.Dead.S03E01.720p.Jaskier.mkv
Формат : Matroska
Версия формата : Version 2
Размер файла : 2,11 Гбайт
Продолжительность : 47 м. 48 с.
Общий поток : 6307 Кбит/сек
Дата кодирования : UTC 2018-02-08 07:36:48
Программа кодирования : mkvmerge v5.8.0 ('No Sleep / Pillow') built on Sep 2 2012 15:37:04
Библиотека кодирования : libebml v1.2.3 + libmatroska v1.3.0

Видео
Идентификатор : 1
Формат : AVC
Формат/Информация : Advanced Video Codec
Профиль формата : High@L4.1
Параметр CABAC формата : Да
Параметр ReFrames формата : 5 кадров
Идентификатор кодека : V_MPEG4/ISO/AVC
Продолжительность : 47 м. 48 с.
Битрейт : 5025 Кбит/сек
Ширина : 1280 пикселей
Высота : 720 пикселей
Соотношение сторон : 16:9
Режим частоты кадров : Постоянный
Частота кадров : 23,976 (24000/1001) кадра/сек
Цветовое пространство : YUV
Субдискретизация насыщенности : 4:2:0
Битовая глубина : 8 бит
Тип развёртки : Прогрессивная
Бит/(Пиксели*Кадры) : 0.227
Размер потока : 1,64 Гбайт (78%)
Библиотека кодирования : x264 core 152 r2851 ba24899
Настройки программы : cabac=1 / ref=5 / deblock=1:-3:-3 / analyse=0x3:0x113 / me=umh / subme=8 / psy=1 / psy_rd=1.00:0.00 / mixed_ref=1 / me_range=24 / chroma_me=1 / trellis=1 / 8x8dct=1 / cqm=0 / deadzone=21,11 / fast_pskip=0 / chroma_qp_offset=-2 / threads=18 / lookahead_threads=3 / sliced_threads=0 / nr=0 / decimate=1 / interlaced=0 / bluray_compat=0 / constrained_intra=0 / bframes=3 / b_pyramid=2 / b_adapt=2 / b_bias=0 / direct=3 / weightb=1 / open_gop=0 / weightp=2 / keyint=240 / keyint_min=24 / scenecut=40 / intra_refresh=0 / rc_lookahead=50 / rc=2pass / mbtree=1 / bitrate=5025 / ratetol=1.0 / qcomp=0.60 / qpmin=0 / qpmax=69 / qpstep=4 / cplxblur=20.0 / qblur=0.5 / ip_ratio=1.40 / aq=3:0.80
Default : Да
Forced : Нет

Аудио #1
Идентификатор : 2
Формат : AC-3
Формат/Информация : Audio Coding 3
Расширение режима : CM (complete main)
Параметр Endianness формата : Big
Идентификатор кодека : A_AC3
Продолжительность : 47 м. 48 с.
Вид битрейта : Постоянный
Битрейт : 640 Кбит/сек
Каналы : 6 каналов
Расположение каналов : Front: L C R, Side: L R, LFE
Частота : 48,0 КГц
Частота кадров : 31,250 кадров/сек (1536 spf)
Метод сжатия : С потерями
Размер потока : 219 Мбайт (10%)
Язык : Russian
Default : Да
Forced : Нет

Аудио #2
Идентификатор : 3
Формат : AC-3
Формат/Информация : Audio Coding 3
Расширение режима : CM (complete main)
Параметр Endianness формата : Big
Идентификатор кодека : A_AC3
Продолжительность : 47 м. 48 с.
Вид битрейта : Постоянный
Битрейт : 640 Кбит/сек
Каналы : 6 каналов
Расположение каналов : Front: L C R, Side: L R, LFE
Частота : 48,0 КГц
Частота кадров : 31,250 кадров/сек (1536 spf)
Метод сжатия : С потерями
Размер потока : 219 Мбайт (10%)
Язык : English
Default : Нет
Forced : Нет

Текст #1
Идентификатор : 4
Формат : UTF-8
Идентификатор кодека : S_TEXT/UTF8
Идентификатор кодека/Информация : UTF-8 Plain Text
Заголовок : FORCED
Язык : English
Default : Нет
Forced : Нет

Текст #2
Идентификатор : 5
Формат : UTF-8
Идентификатор кодека : S_TEXT/UTF8
Идентификатор кодека/Информация : UTF-8 Plain Text
Язык : English
Default : Нет
Forced : Нет

Текст #3
Идентификатор : 6
Формат : UTF-8
Идентификатор кодека : S_TEXT/UTF8
Идентификатор кодека/Информация : UTF-8 Plain Text
Заголовок : SDH
Язык : English
Default : Нет
Forced : Нет

Меню
00:00:00.000 : en:00:00:00.000
00:09:53.635 : en:00:09:53.635
00:16:40.625 : en:00:16:40.625
00:26:24.750 : en:00:26:24.750
00:31:04.404 : en:00:31:04.404
00:37:27.954 : en:00:37:27.954

pb.wtf



Скачать Бойтесь ходячих мертвецов через торрент http://i101.fastpic.ru/big/2018/0209/2d/e6ba7a1350b73c3f0646ee64774ede2d.png Скачать фильм Бойтесь ходячих мертвецов через торрент бесплантно в хорошем качестве Описание: Действия сериала происходят параллельно с событиями зомби-апокалипсиса, показанными в сериале «Ходячие мертвецы», но в совершенно ... 10 10 3
Info! Золотая раздача, скачанное не засчитывается.
Торрент: Зарегистрирован [2018-02-10 01:47] · скачан: 31 раз
Статус: √ проверено
Размер: 33.78 GB
Как cкачать? Как скачать Бойтесь ходячих мертвецов через торрент | qTorrent

% Раздел Тема Автор DL S | L
Зарубежные сериалы [ 7.65 GB ] Бойтесь ходячих мертвецов / Fear the Walking Dead / Сезон: 3 / Серии: 1-16 из 16 [2017 HDRip] MVO [Jaskier] bober100 Скачать
1 | 0
Зарубежные сериалы [ 27.28 GB ] Бойтесь ходячих мертвецов / Fear the Walking Dead / Сезон: 3 / Серии 1-16 из 16 [2017 WEB-DL 1080p] [MVO] killermax2013 Скачать
1 | 1
Зарубежные сериалы [ 8.65 GB ] Бойтесь ходячих мертвецов / Fear the Walking Dead / Сезон: 3 / Серии 1-16 из 16 [2017 WEB-DLRip] [MVO] killermax2013 Скачать
2 | 0
Зарубежные сериалы [ 12.92 GB ] Бойтесь ходячих мертвецов / Fear the Walking Dead / Сезон: 3 / Серии 1-16 из 16 [2017 WEB-DLRip-AVC WEBRip-AVC] MVO [BaibaKo] GEKADOL Скачать
3 | 0
Зарубежные сериалы [ 8.58 GB ] Бойтесь ходячих мертвецов / Fear the Walking Dead / Сезон: 3 / Серии 1-16 из 16 [2017 WEB-DLRip] [MVO] killermax2013 Скачать
2 | 0


>> Регистрируемся здесь <<






Отзывы и комментарии о схеме читаем и пишем здесь: ---> Отзывы и комментарии о схеме

Новые благодарочки в телеграм довольных пользователей:
скриншот   скриншот   скриншот   скриншот   скриншот
    Дорогой пользователь! Огромная просьба, поблагодарите релизера, оцените раздачу и оставьте свои комментарий, если Вы скачали Бойтесь ходячих мертвецов через торрент бесплатно! Внесите свою лепту в развитие PiratBit!
    Комментировать посты могут только пользователи прошедшие не сложную регистрацию
    Показать сообщения:    

    Бойтесь ходячих мертвецов через торрент
    Скачать бесплатно Бойтесь ходячих мертвецов
    Бойтесь ходячих мертвецов скачать торрент
    Бойтесь ходячих мертвецов смотреть онлайн
    Cкачать фильм Бойтесь ходячих мертвецов бесплатно
    Бойтесь ходячих мертвецов скачать торрент в хорошем качестве
    Бойтесь ходячих мертвецов смотреть онлайн бесплатно в хорошем качестве


    Вы не можете начинать темы
    Вы не можете отвечать на сообщения
    Вы не можете редактировать свои сообщения
    Вы не можете удалять свои сообщения
    Вы не можете голосовать в опросах
    Вы не можете прикреплять файлы к сообщениям
    Вы можете скачивать файлы