новый адрес
Ссылка на приватное зеркало всего за 1$. Внимание количество ограничено!!!

iTunes

1+1

iTunes

мы

WEB-DL

1

iTunes

Чернобыль

iTunes

Ральф против интернета

Лицензия

ПШазам

Лицензия

Оно 2

Лицензия

30
pack

Вам бонус

ВАЖНО

!!Акция!!

Alien_RageХит недели

RePack

Resident Evil 21

ИГРА 18+

pack

RePack

jed

!!Акция!!

Alien_Rage

RePack

fifa19

RePack

Assassins Creed: Odyssey

RePack

NEED FOR SPEED™ PAYBACK

3 сезон

9 сезон

Бесстыжие 9 сезон

Все сериалы

все сериалы на PB.wtf

RePack

FAR CRY 5
Ребята, катастрофически не хватает 1900р. для оплаты серверов за Октябрь (всвязи с блокировками трафик упал в 3 раза), 1-2р., выручайте.
  

Гостья из прошлого (Вячеслав Лавров) [2018 г., Мелодрама, SATRip] pb.wtf

Гостья из прошлого через торрент pb.wtf

Размер: 1.37 GB | Добавлен: 1 год 10 мес. назад | Торрент скачан:248 раз
Скачать  

10-02-2018 08:46 Гостья из прошлого Скачать торрент  

Гостья из прошлого
Год выпуска: 2018
Страна: Россия
Жанр: Мелодрама
Продолжительность: 01:20:26
Перевод: Не требуется Русский
Субтитры: Нет

Режиссер: Вячеслав Лавров

В ролях: Сергей Губанов, Кристина Кузьмина, Татьяна Абраменко, Илья Глазунов, Екатерина Решетникова

Описание: Андрей и Татьяна в браке уже несколько лет. Они счастливы и очень хотят детей, но Татьяна никак не может забеременеть, а привлекать суррогатную мать или усыновлять ребенка супруги не хотят. Неожиданно к Андрею на работу приходит некая Ольга. Она предъявляет Андрею мальчика – Никиту, и утверждает, что тот его сын. Андрей решает сделать тест ДНК, и, в ожидании результатов, поселяет Ольгу и Никиту у себя на даче. Боясь расстроить жену, он решает ничего не рассказывать Татьяне. Тем временем Таня замечает, что муж слишком часто стал ездить на дачу. Она подозревает, что у Андрея появилась любовница, поэтому едет на дачу сама…

Качество: SATRip
Формат: AVI
Видео кодек: XviD
Аудио кодек: AC3
Видео: 720x400 (1.80:1), 25 fps, XviD build 50 ~2229 kbps avg, 0.31 bit/pixel
Аудио#1: 48 kHz, AC3 Dolby Digital, 2/0 (L,R) ch, ~192 kbps
скриншот   скриншот   скриншот   скриншот  

General
Complete name : H:\релизы.торрентфайл\Gostja.iz.proshlogo.SATRip.[www.riperam.org].avi
Format : AVI
Format/Info : Audio Video Interleave
File size : 1.37 GiB
Duration : 1h 20mn
Overall bit rate : 2 432 Kbps
Writing application : VirtualDubMod 1.5.10.3 | www.virtualdub-fr.org || (build 2550/release)
Writing library : VirtualDubMod build 2550/release

Video
ID : 0
Format : MPEG-4 Visual
Format profile : Advanced Simple@L5
Format settings, BVOP : 2
Format settings, QPel : No
Format settings, GMC : No warppoints
Format settings, Matrix : Default (H.263)
Codec ID : XVID
Codec ID/Hint : XviD
Duration : 1h 20mn
Bit rate : 2 230 Kbps
Width : 720 pixels
Height : 400 pixels
Display aspect ratio : 16:9
Frame rate : 25.000 fps
Color space : YUV
Chroma subsampling : 4:2:0
Bit depth : 8 bits
Scan type : Progressive
Compression mode : Lossy
Bits/(Pixel*Frame) : 0.310
Stream size : 1.25 GiB (92%)
Writing library : XviD 1.2.1 (UTC 2008-12-04)

Audio
ID : 1
Format : AC-3
Format/Info : Audio Coding 3
Mode extension : CM (complete main)
Format settings, Endianness : Big
Codec ID : 2000
Duration : 1h 20mn
Bit rate mode : Constant
Bit rate : 192 Kbps
Channel(s) : 2 channels
Channel positions : Front: L R
Sampling rate : 48.0 KHz
Bit depth : 16 bits
Compression mode : Lossy
Stream size : 110 MiB (8%)
Alignment : Split accross interleaves
Interleave, duration : 40 ms (1.00 video frame)
Interleave, preload duration : 500 ms

pb.wtf



Скачать Гостья из прошлого через торрент http://i99.fastpic.ru/big/2018/0210/55/0cbc3bb522b1860bd59fe7e8e0110055.jpg Скачать фильм Гостья из прошлого через торрент бесплантно в хорошем качестве Описание: Андрей и Татьяна в браке уже несколько лет. Они счастливы и очень хотят детей, но Татьяна никак не может забеременеть, а ... 8.6 10 8
Торрент: Зарегистрирован [2018-02-10 08:46] · скачан: 248 раз
Статус: √ проверено
Размер: 1.37 GB
Как cкачать? Как скачать Гостья из прошлого через торрент | qTorrent

% Раздел Тема Автор DL S | L
Наши сериалы [ 3.44 GB ] Московские тайны. Гостья из прошлого / Серии: 1-2 из 2 [2018 ьный фильм WEB-DL 1080p] bober100 Скачать
1 | 0
Наши сериалы [ 2.18 GB ] Московские тайны. Гостья из прошлого / Серии: 1-2 из 2 [2018 ьный фильм WEB-DL 720p] bober100 Скачать
1 | 0
Наши сериалы [ 1.19 GB ] Московские тайны. Гостья из прошлого / Серии: 1-2 из 2 [2018 ьный фильм WEB-DLRip-AVC] bober100 Скачать
1 | 0
Наши сериалы [ 1.13 GB ] Московские тайны. Гостья из прошлого / Серии: 1-2 из 2 [2018 WEB-DLRip] bober100 Скачать
1 | 0
Наши сериалы [ 1.25 GB ] Московские тайны. Гостья из прошлого / Серии: 1-2 из 2 [2018 SATRip-AVC] aleksan55 Скачать
2 | 0
Наши сериалы [ 1.23 GB ] Московские тайны. Гостья из прошлого / Серии: 1-2 из 2 [2018 ьный фильм SATRip] bober100 Скачать
1 | 0

28-11-2019 20:33  

Отключить всю рекламу на сайте

    Дорогой пользователь! Огромная просьба, поблагодарите релизера, оцените раздачу и оставьте свои комментарий, если Вы скачали Гостья из прошлого через торрент бесплатно! Внесите свою лепту в развитие PiratBit!
    Комментировать посты могут только пользователи прошедшие не сложную регистрацию
    Показать сообщения:    

    Гостья из прошлого через торрент
    Скачать бесплатно Гостья из прошлого
    Гостья из прошлого скачать торрент
    Гостья из прошлого смотреть онлайн
    Cкачать фильм Гостья из прошлого бесплатно
    Гостья из прошлого скачать торрент в хорошем качестве
    Гостья из прошлого смотреть онлайн бесплатно в хорошем качестве


    Вы не можете начинать темы
    Вы не можете отвечать на сообщения
    Вы не можете редактировать свои сообщения
    Вы не можете удалять свои сообщения
    Вы не можете голосовать в опросах
    Вы не можете прикреплять файлы к сообщениям
    Вы можете скачивать файлы