Ссылка на приватное зеркало нашего сайта всего за 1$. Внимание количество ограничено!!!

2 сезон

iTunes

1 сезон

1

2 сезон

2 сезон

iTunes

1 сезон

RePack

30

Ultimate

ВАЖНО

ИГРА 18+

pack

RePack

MK11
pack

Забери бонус

RePack

jed

!!Акция!!

Alien_Rage

RePack

fifa19

RePack

Assassins Creed: Odyssey

RePack

NEED FOR SPEED™ PAYBACK

4 сезон

9 сезон

Бесстыжие 9 сезон

Все сериалы

все сериалы на PB.wtf

RePack

FAR CRY 5
  

HammerFall - Glory To The Brave (20-Year Anniversary Edition, 2 CDs, 1997) - 2017/ FLAC/ image +.cue/ lossless/ Power Metal pb.wtf

HammerFall - Glory To The Brave через торрент pb.wtf

Размер: 822 MB | Добавлен: 2 года 9 мес. назад | Торрент скачан:34 раза
Скачать  

10-02-2018 10:30 HammerFall - Glory To The Brave Скачать торрент  


HammerFall - Glory To The Brave (20-Year Anniversary Edition, 2 CDs, 1997)


Год издания: 2017
Страна: Sweden
Жанр: Power Metal
Продолжительность: 01:34:59
Лейбл издания: Nuclear Blast Tonträger Produktions-und Vertriebs GmbH
Страна-выпуска диска: Germany
Номер по каталогу: NB 4035-0
Формат: FLAC
Битрейт аудио: Lossless
Тип рипа: image +.cue
Наличие сканов в содержимом раздачи: да


01. The Dragon Lies Bleeding (4:24)
02. The Metal Age (4:28)
03. HammerFall (4:47)
04. I Believe (4:51)
05. Child Of The Damned (3:43)
06. Steel Meets Steel (4:14)
07. Stone Cold (5:57)
08. Unchained (5:37)
09. Glory To The Brave (7:38)
10. Ravenlord (3:32)
11. Glory To The Brave (Radio Edit) (5:04)

01. The Metal Age (1998) (4:25)
02. Steel Meets Steel (1998) (4:34)
03. Stone Cold (1998) (7:00)
04. Glory To The Brave (2012) (6:29)
05. HammerFall (2012) (5:45)
06. The Dragon Lies Bleeding (2012) (4:28)
07. Glory To The Brave Medley (2017) (8:00)

Код:

Exact Audio Copy V1.1 from 23. June 2015

EAC extraction logfile from 27. December 2017, 15:16

HammerFall / Glory To The Brave CD 1

Used drive  : HP      DVD Writer 1170d   Adapter: 1  ID: 1

Read mode               : Secure
Utilize accurate stream : Yes
Defeat audio cache      : Yes
Make use of C2 pointers : No

Read offset correction                      : 6
Overread into Lead-In and Lead-Out          : No
Fill up missing offset samples with silence : Yes
Delete leading and trailing silent blocks   : No
Null samples used in CRC calculations       : Yes
Used interface                              : Native Win32 interface for Win NT & 2000

Used output format              : User Defined Encoder
Selected bitrate                : 1024 kBit/s
Quality                         : High
Add ID3 tag                     : No
Command line compressor         : C:\Program Files (x86)\Exact Audio Copy\Flac\flac.exe
Additional command line options : -V -8 -T "Date=%year%" -T "Genre=%genre%" %source%

TOC of the extracted CD

     Track |   Start  |  Length  | Start sector | End sector
    ---------------------------------------------------------
        1  |  0:00.00 |  4:23.41 |         0    |    19765
        2  |  4:23.41 |  4:28.32 |     19766    |    39897
        3  |  8:51.73 |  4:47.09 |     39898    |    61431
        4  | 13:39.07 |  4:51.04 |     61432    |    83260
        5  | 18:30.11 |  3:42.68 |     83261    |    99978
        6  | 22:13.04 |  4:13.72 |     99979    |   119025
        7  | 26:27.01 |  5:57.31 |    119026    |   145831
        8  | 32:24.32 |  5:37.35 |    145832    |   171141
        9  | 38:01.67 |  7:37.66 |    171142    |   205482
       10  | 45:39.58 |  3:32.16 |    205483    |   221398
       11  | 49:11.74 |  5:04.27 |    221399    |   244225

Range status and errors

Selected range

     Filename C:\EAC\Ungern666\HammerFall - Glory To The Brave CD 1.wav

     Peak level 100.0 %
     Extraction speed 6.9 X
     Range quality 100.0 %
     Test CRC 6A7E96E0
     Copy CRC 6A7E96E0
     Copy OK

No errors occurred

AccurateRip summary

Track  1  not present in database
Track  2  not present in database
Track  3  not present in database
Track  4  not present in database
Track  5  not present in database
Track  6  not present in database
Track  7  not present in database
Track  8  not present in database
Track  9  not present in database
Track 10  not present in database
Track 11  not present in database

None of the tracks are present in the AccurateRip database

End of status report

Код:

Exact Audio Copy V1.1 from 23. June 2015

EAC extraction logfile from 27. December 2017, 15:43

HammerFall / Glory To The Brave CD 2

Used drive  : HP      DVD Writer 1170d   Adapter: 1  ID: 1

Read mode               : Secure
Utilize accurate stream : Yes
Defeat audio cache      : Yes
Make use of C2 pointers : No

Read offset correction                      : 6
Overread into Lead-In and Lead-Out          : No
Fill up missing offset samples with silence : Yes
Delete leading and trailing silent blocks   : No
Null samples used in CRC calculations       : Yes
Used interface                              : Native Win32 interface for Win NT & 2000

Used output format              : User Defined Encoder
Selected bitrate                : 1024 kBit/s
Quality                         : High
Add ID3 tag                     : No
Command line compressor         : C:\Program Files (x86)\Exact Audio Copy\Flac\flac.exe
Additional command line options : -V -8 -T "Date=%year%" -T "Genre=%genre%" %source%

TOC of the extracted CD

     Track |   Start  |  Length  | Start sector | End sector
    ---------------------------------------------------------
        1  |  0:00.00 |  4:25.35 |         0    |    19909
        2  |  4:25.35 |  4:34.25 |     19910    |    40484
        3  |  8:59.60 |  7:00.05 |     40485    |    71989
        4  | 15:59.65 |  6:29.09 |     71990    |   101173
        5  | 22:28.74 |  5:45.37 |    101174    |   127085
        6  | 28:14.36 |  4:27.68 |    127086    |   147178
        7  | 32:42.29 |  8:00.01 |    147179    |   183179

Range status and errors

Selected range

     Filename C:\EAC\Ungern666\HammerFall - Glory To The Brave CD 2.wav

     Peak level 100.0 %
     Extraction speed 5.3 X
     Range quality 100.0 %
     Test CRC 3EEDCF6B
     Copy CRC 3EEDCF6B
     Copy OK

No errors occurred

AccurateRip summary

Track  1  not present in database
Track  2  not present in database
Track  3  not present in database
Track  4  not present in database
Track  5  not present in database
Track  6  not present in database
Track  7  not present in database

None of the tracks are present in the AccurateRip database

End of status report

Код:

REM DATE 2017
REM DISCID 910CB80B
REM COMMENT "ExactAudioCopy v1.1"
PERFORMER "HammerFall"
TITLE "Glory To The Brave CD 1"
FILE "HammerFall - Glory To The Brave CD 1.flac" WAVE
  TRACK 01 AUDIO
    TITLE "The Dragon Lies Bleeding"
    PERFORMER "HammerFall"
    INDEX 01 00:00:00
  TRACK 02 AUDIO
    TITLE "The Metal Age"
    PERFORMER "HammerFall"
    INDEX 00 04:20:14
    INDEX 01 04:23:41
  TRACK 03 AUDIO
    TITLE "HammerFall"
    PERFORMER "HammerFall"
    INDEX 00 08:49:73
    INDEX 01 08:51:73
  TRACK 04 AUDIO
    TITLE "I Believe"
    PERFORMER "HammerFall"
    INDEX 00 13:37:07
    INDEX 01 13:39:07
  TRACK 05 AUDIO
    TITLE "Child Of The Damned"
    PERFORMER "HammerFall"
    INDEX 00 18:28:25
    INDEX 01 18:30:11
  TRACK 06 AUDIO
    TITLE "Steel Meets Steel"
    PERFORMER "HammerFall"
    INDEX 00 22:11:04
    INDEX 01 22:13:04
  TRACK 07 AUDIO
    TITLE "Stone Cold"
    PERFORMER "HammerFall"
    INDEX 00 26:25:01
    INDEX 01 26:27:01
  TRACK 08 AUDIO
    TITLE "Unchained"
    PERFORMER "HammerFall"
    INDEX 00 32:22:32
    INDEX 01 32:24:32
  TRACK 09 AUDIO
    TITLE "Glory To The Brave"
    PERFORMER "HammerFall"
    INDEX 00 37:59:67
    INDEX 01 38:01:67
  TRACK 10 AUDIO
    TITLE "Ravenlord"
    PERFORMER "HammerFall"
    INDEX 00 45:34:58
    INDEX 01 45:39:58
  TRACK 11 AUDIO
    TITLE "Glory To The Brave (Radio Edit)"
    PERFORMER "HammerFall"
    INDEX 00 49:10:74
    INDEX 01 49:11:74

Код:

REM DATE 2017
REM DISCID 5E098A07
REM COMMENT "ExactAudioCopy v1.1"
PERFORMER "HammerFall"
TITLE "Glory To The Brave CD 2"
FILE "HammerFall - Glory To The Brave CD 2.flac" WAVE
  TRACK 01 AUDIO
    TITLE "The Metal Age (1998)"
    PERFORMER "HammerFall"
    INDEX 01 00:00:00
  TRACK 02 AUDIO
    TITLE "Steel Meets Steel (1998)"
    PERFORMER "HammerFall"
    INDEX 01 04:25:35
  TRACK 03 AUDIO
    TITLE "Stone Cold (1998)"
    PERFORMER "HammerFall"
    INDEX 01 08:59:60
  TRACK 04 AUDIO
    TITLE "Glory To The Brave (2012)"
    PERFORMER "HammerFall"
    INDEX 01 15:59:65
  TRACK 05 AUDIO
    TITLE "HammerFall (2012)"
    PERFORMER "HammerFall"
    INDEX 01 22:28:74
  TRACK 06 AUDIO
    TITLE "The Dragon Lies Bleeding (2012)"
    PERFORMER "HammerFall"
    INDEX 01 28:14:36
  TRACK 07 AUDIO
    TITLE "Glory To The Brave Medley (2017)"
    PERFORMER "HammerFall"
    INDEX 01 32:42:29






pb.wtf



Скачать HammerFall - Glory To The Brave через торрент http://i102.fastpic.ru/big/2018/0210/64/e7136daece42eba5bea4d66b1ea61164.png Скачать фильм HammerFall - Glory To The Brave через торрент бесплантно в хорошем качестве ... 10 10 3
Торрент: Зарегистрирован [2018-02-10 10:30] · скачан: 34 раз
Статус: √ проверено
Размер: 822 MB
Как cкачать? Как скачать HammerFall - Glory To The Brave через торрент | qTorrent

28-11-2019 20:33  

Отключить всю рекламу на сайте

    Дорогой пользователь! Огромная просьба, поблагодарите релизера, оцените раздачу и оставьте свои комментарий, если Вы скачали HammerFall - Glory To The Brave через торрент бесплатно! Внесите свою лепту в развитие PiratBit!
    Комментировать посты могут только пользователи прошедшие не сложную регистрацию
    Показать сообщения:    

    HammerFall - Glory To The Brave через торрент
    Скачать бесплатно HammerFall - Glory To The Brave
    HammerFall - Glory To The Brave скачать торрент
    HammerFall - Glory To The Brave смотреть онлайн
    Cкачать фильм HammerFall - Glory To The Brave бесплатно
    HammerFall - Glory To The Brave скачать торрент в хорошем качестве
    HammerFall - Glory To The Brave смотреть онлайн бесплатно в хорошем качестве


    Вы не можете начинать темы
    Вы не можете отвечать на сообщения
    Вы не можете редактировать свои сообщения
    Вы не можете удалять свои сообщения
    Вы не можете голосовать в опросах
    Вы не можете прикреплять файлы к сообщениям
    Вы можете скачивать файлы