Ссылка на приватное зеркало нашего сайта всего за 1$. Внимание количество ограничено!!!

2 сезон

iTunes

1 сезон

1

2 сезон

2 сезон

iTunes

1 сезон

RePack

30

Ultimate

ВАЖНО

ИГРА 18+

pack

RePack

MK11
pack

Забери бонус

RePack

jed

!!Акция!!

Alien_Rage

RePack

fifa19

RePack

Assassins Creed: Odyssey

RePack

NEED FOR SPEED™ PAYBACK

4 сезон

9 сезон

Бесстыжие 9 сезон

Все сериалы

все сериалы на PB.wtf

RePack

FAR CRY 5
  

Burning Witches - Burning Witches (Japanese Edition) - 2017/ FLAC/ image +.cue/ lossless/ Heavy, Power Metal pb.wtf

Burning Witches - Burning Witches через торрент pb.wtf

Размер: 436 MB | Добавлен: 2 года 9 мес. назад | Торрент скачан:11 раз
Скачать  

10-02-2018 10:32 Burning Witches - Burning Witches Скачать торрент  


Burning Witches - Burning Witches (Japanese Edition)


Год издания: 2017
Страна: Switzerland (Brugg)
Жанр: Heavy, Power Metal
Продолжительность: 00:50:50
Лейбл издания: Rubicon Music
Страна-выпуска диска: Japan
Номер по каталогу: RBNCD-1235
Формат: FLAC
Битрейт аудио: Lossless
Тип рипа: image +.cue
Наличие сканов в содержимом раздачи: да


01. Black Widow (4:05)
02. Burning Witches (4:18)
03. Bloody Rose (3:51)
04. The Dark Companion (5:18)
05. Metal Demons (2:52)
06. Save Me (4:40)
07. Creatures Of The Night (4:20)
08. We Eat Your Children (3:02)
09. Creator Of Hell (4:01)
10. The Deathlist (5:19)
11. Jawbreaker (Judas Priest Cover) (3:35)
12. Save Me (Acoustic Version) (Bonus Track) (5:29)

Код:

Exact Audio Copy V1.3 from 2. September 2016

EAC extraction logfile from 24. July 2017, 22:56

Burning Witches / Burning Witches (Japan)

Used drive  : ATAPI   iHAS122   W   Adapter: 2  ID: 0

Read mode               : Secure
Utilize accurate stream : Yes
Defeat audio cache      : Yes
Make use of C2 pointers : No

Read offset correction                      : 48
Overread into Lead-In and Lead-Out          : No
Fill up missing offset samples with silence : Yes
Delete leading and trailing silent blocks   : No
Null samples used in CRC calculations       : Yes
Used interface                              : Installed external ASPI interface

Used output format              : User Defined Encoder
Selected bitrate                : 1024 kBit/s
Quality                         : High
Add ID3 tag                     : No
Command line compressor         : C:\Program Files\FLAC\flac.exe
Additional command line options : -V -8 -T "Date=%year%" -T "Genre=%genre%" -T"COMMENT=Ripped by  Ilijan - ilko" -8 -V %source%

TOC of the extracted CD

     Track |   Start  |  Length  | Start sector | End sector
    ---------------------------------------------------------
        1  |  0:00.00 |  4:04.63 |         0    |    18362
        2  |  4:04.63 |  4:17.64 |     18363    |    37701
        3  |  8:22.52 |  3:51.27 |     37702    |    55053
        4  | 12:14.04 |  5:18.10 |     55054    |    78913
        5  | 17:32.14 |  2:51.55 |     78914    |    91793
        6  | 20:23.69 |  4:40.02 |     91794    |   112795
        7  | 25:03.71 |  4:20.19 |    112796    |   132314
        8  | 29:24.15 |  3:01.54 |    132315    |   145943
        9  | 32:25.69 |  4:01.31 |    145944    |   164049
       10  | 36:27.25 |  5:18.40 |    164050    |   187939
       11  | 41:45.65 |  3:34.60 |    187940    |   204049
       12  | 45:20.50 |  5:29.20 |    204050    |   228744

Range status and errors

Selected range

     Filename D:\ilko\Burning Witches - Burning Witches (Japan).wav

     Peak level 96.6 %
     Extraction speed 3.9 X
     Range quality 100.0 %
     Test CRC FE7962BA
     Copy CRC FE7962BA
     Copy OK

No errors occurred

AccurateRip summary

Track  1  accurately ripped (confidence 1)  [CFDDCDCD]  (AR v2)
Track  2  accurately ripped (confidence 1)  [DAA2434A]  (AR v2)
Track  3  accurately ripped (confidence 1)  [D40E036B]  (AR v2)
Track  4  accurately ripped (confidence 1)  [E3E1DCF0]  (AR v2)
Track  5  accurately ripped (confidence 1)  [1924AAE8]  (AR v2)
Track  6  accurately ripped (confidence 1)  [CB0B6628]  (AR v2)
Track  7  accurately ripped (confidence 1)  [A5A75924]  (AR v2)
Track  8  accurately ripped (confidence 1)  [DF3AD0AF]  (AR v2)
Track  9  accurately ripped (confidence 1)  [D6D369B3]  (AR v2)
Track 10  accurately ripped (confidence 1)  [A5A8A6C1]  (AR v2)
Track 11  accurately ripped (confidence 1)  [9531D78A]  (AR v2)
Track 12  accurately ripped (confidence 1)  [3577D4C8]  (AR v2)

All tracks accurately ripped

End of status report

Код:

REM GENRE "Power Metal"
REM DATE 2017
REM DISCID 9E0BE90C
REM COMMENT "ExactAudioCopy v1.3"
PERFORMER "Burning Witches"
TITLE "Burning Witches (Japan)"
FILE "Burning Witches - Burning Witches (Japan).flac" WAVE
  TRACK 01 AUDIO
    TITLE "Black Widow"
    PERFORMER "Burning Witches"
    FLAGS DCP
    INDEX 01 00:00:00
  TRACK 02 AUDIO
    TITLE "Burning Witches"
    PERFORMER "Burning Witches"
    FLAGS DCP
    INDEX 01 04:04:63
  TRACK 03 AUDIO
    TITLE "Bloody Rose"
    PERFORMER "Burning Witches"
    FLAGS DCP
    INDEX 01 08:22:52
  TRACK 04 AUDIO
    TITLE "The Dark Companion"
    PERFORMER "Burning Witches"
    FLAGS DCP
    INDEX 01 12:14:04
  TRACK 05 AUDIO
    TITLE "Metal Demons"
    PERFORMER "Burning Witches"
    FLAGS DCP
    INDEX 01 17:32:14
  TRACK 06 AUDIO
    TITLE "Save Me"
    PERFORMER "Burning Witches"
    FLAGS DCP
    INDEX 01 20:23:69
  TRACK 07 AUDIO
    TITLE "Creatures Of The Night"
    PERFORMER "Burning Witches"
    FLAGS DCP
    INDEX 01 25:03:71
  TRACK 08 AUDIO
    TITLE "We Eat Your Children"
    PERFORMER "Burning Witches"
    FLAGS DCP
    INDEX 01 29:24:15
  TRACK 09 AUDIO
    TITLE "Creator Of Hell"
    PERFORMER "Burning Witches"
    FLAGS DCP
    INDEX 01 32:25:69
  TRACK 10 AUDIO
    TITLE "The Deathlist"
    PERFORMER "Burning Witches"
    FLAGS DCP
    INDEX 01 36:27:25
  TRACK 11 AUDIO
    TITLE "Jawbreaker (Judas Priest Cover)"
    PERFORMER "Burning Witches"
    FLAGS DCP
    INDEX 01 41:45:65
  TRACK 12 AUDIO
    TITLE "Save Me (Acoustic Version) (Bonus Track)"
    PERFORMER "Burning Witches"
    FLAGS DCP
    INDEX 01 45:20:50




pb.wtf



Скачать Burning Witches - Burning Witches через торрент http://i103.fastpic.ru/big/2018/0210/3e/22f8a2b8696983b77bdca3e56fcb513e.png Скачать фильм Burning Witches - Burning Witches через торрент бесплантно в хорошем качестве Трэклист Black Widow (4:05) Burning Witches (4:18) Bloody Rose (3:51) The Dark Companion (5:18) Metal ... 10 10 2
Торрент: Зарегистрирован [2018-02-10 10:32] · скачан: 11 раз
Статус: √ проверено
Размер: 436 MB
Как cкачать? Как скачать Burning Witches - Burning Witches через торрент | qTorrent

28-11-2019 20:33  

Отключить всю рекламу на сайте

    Дорогой пользователь! Огромная просьба, поблагодарите релизера, оцените раздачу и оставьте свои комментарий, если Вы скачали Burning Witches - Burning Witches через торрент бесплатно! Внесите свою лепту в развитие PiratBit!
    Комментировать посты могут только пользователи прошедшие не сложную регистрацию
    Показать сообщения:    

    Burning Witches - Burning Witches через торрент
    Скачать бесплатно Burning Witches - Burning Witches
    Burning Witches - Burning Witches скачать торрент
    Burning Witches - Burning Witches смотреть онлайн
    Cкачать фильм Burning Witches - Burning Witches бесплатно
    Burning Witches - Burning Witches скачать торрент в хорошем качестве
    Burning Witches - Burning Witches смотреть онлайн бесплатно в хорошем качестве


    Вы не можете начинать темы
    Вы не можете отвечать на сообщения
    Вы не можете редактировать свои сообщения
    Вы не можете удалять свои сообщения
    Вы не можете голосовать в опросах
    Вы не можете прикреплять файлы к сообщениям
    Вы можете скачивать файлы