Доктор Стрэндж

Лицензия

Добыча

MVO

Дом дракона

1 сезон

Тор

Лицензия

Мэверик

Лицензия

Там, где раки поют

MVO

Властелин колец

1 сезон

Ultimate

pack

Рекомендуем

30

Repack

ВАЖНО

ВАЖНО

Ghostwire

RePack

jed

RePack

nioh2

RePack

RDR2

RePack

NEED FOR SPEED™ PAYBACK

RePack

скачать торрент

Кинопоиск HD

Острые козырьки 6 сезон

6 сезон

FAR CRY 6

RePack

скачать торрент

Лицензия

скачать торрент

MVO

1

1 сезон

скачать торрент

1 сезон

скачать торрент

Лицензия

  

Счастливчик / Lucky (Джон Кэрролл Линч) [2017, драма, комедия, WEB-DL 1080p] MVO [Jaskier]

Счастливчик через торрент pb.wtf

Размер: 3.3 GB | Добавлен: 4 года 7 мес. назад | Торрент скачан:84 раза
Смотреть онлайн Счастливчик | Скачать   

10-02-2018 12:07 Счастливчик Скачать торрент  

Счастливчик / LuckyГод выпуска: 2017
Страна: США
Жанр: драма, комедия
Продолжительность: 01:28:07
Перевод: Профессиональный (многоголосый) | Jaskier
Субтитры: отсутствуют

Режиссер: Джон Кэрролл Линч

rating

В ролях:

Гарри Дин Стэнтон, Дэвид Линч, Рон Ливингстон, Эд Бегли мл., Том Скеррит, Бет Грант, Джеймс Даррен, Бэрри Шебака Хенли, Ивонн Хафф, Хьюго Армстронг

Описание:

Переживший всех своих сверстников девяностолетний атеист отправляется в духовное путешествие.

Качество: WEB-DL 1080p
Формат: MKV

Видео: MPEG-4 AVC, ~ 4587 Кбит/с, 1920x798
Аудио#1: Русский (AC3, 6 ch, 384 Кбит/с)
Аудио#2: английский (AC3, 6 ch, 384 Кбит/с)

скриншот  скриншот  скриншот  

Общее
Уникальный идентификатор : 165412481244974190653846061456492919405 (0x7C7148FB0945F3EDC5C7CA389F3CFA6D)
Полное имя : D:\Lucky.2017.P.WEB-DL.1080p.Jaskier.Rus.Eng.mkv
Формат : Matroska
Версия формата : Version 4 / Version 2
Размер файла : 3,30 Гбайт
Продолжительность : 1 ч. 28 м.
Общий поток : 5357 Кбит/сек
Дата кодирования : UTC 2018-02-10 10:19:48
Программа кодирования : mkvmerge v19.0.0 ('Brave Captain') 64-bit
Библиотека кодирования : libebml v1.3.5 + libmatroska v1.4.8

Видео
Идентификатор : 1
Формат : AVC
Формат/Информация : Advanced Video Codec
Профиль формата : [email protected]
Параметр CABAC формата : Да
Параметр ReFrames формата : 5 кадров
Идентификатор кодека : V_MPEG4/ISO/AVC
Продолжительность : 1 ч. 28 м.
Битрейт : 4587 Кбит/сек
Ширина : 1920 пикселей
Высота : 798 пикселей
Соотношение сторон : 2,40:1
Режим частоты кадров : Постоянный
Частота кадров : 23,976 (24000/1001) кадра/сек
Цветовое пространство : YUV
Субдискретизация насыщенности : 4:2:0
Битовая глубина : 8 бит
Тип развёртки : Прогрессивная
Бит/(Пиксели*Кадры) : 0.122
Размер потока : 2,76 Гбайт (84%)
Заголовок : Lucky.2017.1080p.WEB-DL.DD5.1.H264-FGT
Язык : English
Default : Да
Forced : Нет
Цветовой диапазон : Limited
Основные цвета : BT.709
Характеристики трансфера : BT.709
Коэффициенты матрицы : BT.709

Аудио #1
Идентификатор : 2
Формат : AC-3
Формат/Информация : Audio Coding 3
Расширение режима : CM (complete main)
Параметр Endianness формата : Big
Идентификатор кодека : A_AC3
Продолжительность : 1 ч. 28 м.
Вид битрейта : Постоянный
Битрейт : 384 Кбит/сек
Каналы : 6 каналов
Расположение каналов : Front: L C R, Side: L R, LFE
Частота : 48,0 КГц
Частота кадров : 31,250 кадров/сек (1536 spf)
Метод сжатия : С потерями
Задержка видео : -42 мс.
Размер потока : 242 Мбайт (7%)
Заголовок : Jaskier
Язык : Russian
Default : Да
Forced : Нет

Аудио #2
Идентификатор : 3
Формат : AC-3
Формат/Информация : Audio Coding 3
Расширение режима : CM (complete main)
Параметр Endianness формата : Big
Идентификатор кодека : A_AC3
Продолжительность : 1 ч. 28 м.
Вид битрейта : Постоянный
Битрейт : 384 Кбит/сек
Каналы : 6 каналов
Расположение каналов : Front: L C R, Side: L R, LFE
Частота : 48,0 КГц
Частота кадров : 31,250 кадров/сек (1536 spf)
Метод сжатия : С потерями
Задержка видео : -42 мс.
Размер потока : 242 Мбайт (7%)
Язык : English
Default : Нет
Forced : Нет

Меню
00:00:00.000 : en:Routine
00:05:38.213 : en:Joes
00:12:33.795 : en:Elaines
00:17:07.819 : en:Falling down
00:23:30.493 : en:Concerned citizens
00:27:15.718 : en:Home
00:30:28.994 : en:I was a bum
00:41:52.218 : en:I See A Darkness
00:45:15.879 : en:You like game shows
00:50:06.920 : en:Time before you were born
00:56:16.664 : en:Pet store
01:00:14.651 : en:Veterans
01:06:05.793 : en:Birthday party
01:12:53.492 : en:The Truth Matters
01:18:15.105 : en:Eve's
01:19:59.042 : en:I stole the right to live

Kbober100 писал(а):


Есть аудио-реклама!



Скачать Счастливчик через торрент http://img12.lostpic.net/2018/02/10/873a281eddfd0199df552cb68b333825.jpg Скачать, смотреть онлайн Счастливчик бесплантно в хорошем качестве Описание: Переживший всех своих сверстников девяностолетний атеист отправляется в духовное ... 10 10 2
Торрент: Зарегистрирован [2018-02-10 12:07] · скачан: 84 раз
Статус: T временная
Размер: 3.3 GB
Как cкачать? Как скачать Счастливчик через торрент | UTorrent

% Раздел Тема Автор DL S | L
Фильмы 2017 [DVDrip, WEB-DLRip, HDrip] (DUB, MVO) [ 1.73 GB ] Счастливчик / Lucky | Jaskier | BDRip-AVC Enigma2010 Скачать
1 | 0
T Фильмы (WEB-DL 720p, 1080p) [ 3.18 GB ] Счастливчик / Lucky | MVO | 1080p WorldSM Скачать
1 | 0
T Фильмы (мультфильмы) cо спонсором показа (Новинки AVI/MKV) [ 3.02 GB ] Счастливчик / Lucky | Jaskier | 720p bober100 Скачать
1 | 0
T Фильмы (мультфильмы) cо спонсором показа (Новинки AVI/MKV) [ 1.37 GB ] Счастливчик / Lucky | Jaskier | DLRip bober100 Скачать
1 | 0

28-11-2019 20:33  

Отключить вcю реклaмy на сайте

    Дорогой пользователь! Огромная просьба, поблагодарите релизера, оцените раздачу и оставьте свои комментарий, если Вы скачали Счастливчик через торрент бесплатно!!
    Комментировать посты могут только пользователи прошедшие не сложную регистрацию
    Показать сообщения:    


    Счастливчик через торрент
    Скачать бесплатно Счастливчик
    Счастливчик скачать торрент
    Счастливчик смотреть онлайн
    Cкачать фильм Счастливчик бесплатно
    Счастливчик скачать торрент в хорошем качестве
    Счастливчик смотреть онлайн бесплатно в хорошем качестве
    Вы не можете начинать темы
    Вы не можете отвечать на сообщения
    Вы не можете редактировать свои сообщения
    Вы не можете удалять свои сообщения
    Вы не можете голосовать в опросах
    Вы не можете прикреплять файлы к сообщениям
    Вы можете скачивать файлы