Ссылка на приватное зеркало всего за 1$. Внимание количество ограничено!!!

OK

1+1

iTunes

мы

OK

1

WEB-DLRip

Джокер

Пифагор

Ведьмак / The Witcher сериал

Лицензия

ПШазам

ОК

Оно 2

iTunes

30
pack

Вам бонус

ВАЖНО

!!Акция!!

Alien_RageХит недели

RePack

Resident Evil 21

ИГРА 18+

pack

RePack

jed

RePack

fifa19

RePack

Assassins Creed: Odyssey

RePack

NEED FOR SPEED™ PAYBACK

4 сезон

9 сезон

Бесстыжие 9 сезон

Все сериалы

все сериалы на PB.wtf

RePack

FAR CRY 5
  

Счастливчик / Lucky (Джон Кэрролл Линч) [2017, драма, комедия, WEB-DL 720p] MVO [Jaskier] pb.wtf

Счастливчик через торрент pb.wtf

Размер: 3.02 GB | Добавлен: 1 год 11 мес. назад | Торрент скачан:97 раз
Скачать  

10-02-2018 12:12 Счастливчик Скачать торрент  

Счастливчик / LuckyГод выпуска: 2017
Страна: США
Жанр: драма, комедия
Продолжительность: 01:28:07
Перевод: Профессиональный (многоголосый) | Jaskier
Субтитры: отсутствуют

Режиссер: Джон Кэрролл Линч

rating

В ролях:

Гарри Дин Стэнтон, Дэвид Линч, Рон Ливингстон, Эд Бегли мл., Том Скеррит, Бет Грант, Джеймс Даррен, Бэрри Шебака Хенли, Ивонн Хафф, Хьюго Армстронг

Описание:

Переживший всех своих сверстников девяностолетний атеист отправляется в духовное путешествие.

Качество: WEB-DL 720p
Формат: MKV

Видео: MPEG-4 AVC, ~ 4133 Кбит/с, 1280x528
Аудио#1: Русский (AC3, 6 ch, 384 Кбит/с)
Аудио#2: английский (AC3, 6 ch, 384 Кбит/с)

скриншот  скриншот  скриншот  

Общее
Уникальный идентификатор : 295677233307265056402034282720836652554 (0xDE715D1EB85FFC7AD3793775A46F0E0A)
Полное имя : D:\Lucky.2017.P.WEB-DL.720p.Jaskier.Rus.Eng.mkv
Формат : Matroska
Версия формата : Version 4 / Version 2
Размер файла : 3,02 Гбайт
Продолжительность : 1 ч. 28 м.
Общий поток : 4903 Кбит/сек
Дата кодирования : UTC 2018-02-10 10:26:26
Программа кодирования : mkvmerge v19.0.0 ('Brave Captain') 64-bit
Библиотека кодирования : libebml v1.3.5 + libmatroska v1.4.8

Видео
Идентификатор : 1
Формат : MPEG-4 Visual
Профиль формата : Simple@L5
Параметр BVOP формата : Нет
Параметр QPel формата : Нет
Параметр GMC формата : Без точки перехода
Параметр матрицы формата : Default (H.263)
Идентификатор кодека : V_MS/VFW/FOURCC / XVID
Идентификатор кодека/Подсказка : XviD
Продолжительность : 1 ч. 28 м.
Битрейт : 4133 Кбит/сек
Ширина : 1280 пикселей
Высота : 528 пикселей
Соотношение сторон : 2,40:1
Режим частоты кадров : Постоянный
Частота кадров : 23,976 (24000/1001) кадра/сек
Цветовое пространство : YUV
Субдискретизация насыщенности : 4:2:0
Битовая глубина : 8 бит
Тип развёртки : Прогрессивная
Метод сжатия : С потерями
Бит/(Пиксели*Кадры) : 0.249
Размер потока : 2,49 Гбайт (82%)
Библиотека кодирования : Lavc58.1.100
Default : Да
Forced : Нет

Аудио #1
Идентификатор : 2
Формат : AC-3
Формат/Информация : Audio Coding 3
Расширение режима : CM (complete main)
Параметр Endianness формата : Big
Идентификатор кодека : A_AC3
Продолжительность : 1 ч. 28 м.
Вид битрейта : Постоянный
Битрейт : 384 Кбит/сек
Каналы : 6 каналов
Расположение каналов : Front: L C R, Side: L R, LFE
Частота : 48,0 КГц
Частота кадров : 31,250 кадров/сек (1536 spf)
Метод сжатия : С потерями
Размер потока : 242 Мбайт (8%)
Заголовок : Jaskier
Язык : Russian
Default : Да
Forced : Нет

Аудио #2
Идентификатор : 3
Формат : AC-3
Формат/Информация : Audio Coding 3
Расширение режима : CM (complete main)
Параметр Endianness формата : Big
Идентификатор кодека : A_AC3
Продолжительность : 1 ч. 28 м.
Вид битрейта : Постоянный
Битрейт : 384 Кбит/сек
Каналы : 6 каналов
Расположение каналов : Front: L C R, Side: L R, LFE
Частота : 48,0 КГц
Частота кадров : 31,250 кадров/сек (1536 spf)
Метод сжатия : С потерями
Размер потока : 242 Мбайт (8%)
Default : Нет
Forced : Нет

pb.wtf
Kbober100 писал(а):

Есть аудио-реклама!



Скачать Счастливчик через торрент http://img12.lostpic.net/2018/02/10/873a281eddfd0199df552cb68b333825.jpg Скачать фильм Счастливчик через торрент бесплантно в хорошем качестве Описание: Переживший всех своих сверстников девяностолетний атеист отправляется в духовное ... 9.8 10 4
Торрент: Зарегистрирован [2018-02-10 12:12] · скачан: 97 раз
Статус: T временная
Размер: 3.02 GB
Как cкачать? Как скачать Счастливчик через торрент | qTorrent

% Раздел Тема Автор DL S | L
Зарубежные сериалы [ 10.15 GB ] Счастливчик / Везунчик / Stan Lee's Lucky Man / Сезон: 2 / Серии: 1-10 из 10 [2016 HDTVRip 720p] MVO [Jaskier] bober100 Скачать
1 | 0
Зарубежные сериалы [ 9.8 GB ] Счастливчик / Везунчик / Stan Lee's Lucky Man / Сезон: 1 / Серии: 1-10 из 10 [2016 HDTVRip 720p] MVO [Jaskier] bober100 Скачать
1 | 0
Фильмы 2017 [DVDrip, WEB-DLRip, HDrip] (DUB, MVO) [ 1.73 GB ] Счастливчик / Lucky [2017 BDRip-AVC] [MVO] - ExKinoRay Enigma2010 Скачать
1 | 0
Зарубежные сериалы [ 7.95 GB ] Счастливчик / Stan Lee's Lucky Man / Сезон 1 / Серии 1-10 из 10 [2016 WEB-DLRip-AVC] MVO [BaibaKo] GEKADOL Скачать
1 | 0
Зарубежные сериалы [ 4.03 GB ] Счастливчик / Stan Lee's Lucky Man / Сезон: 3 / Серии 1-8 из 8 [2018 WEB-DLRip] MVO [BaibaKo] GEKADOL Скачать
1 | 0
T Фильмы (WEB-DL 720p, 1080p) [ 3.18 GB ] Счастливчик / Lucky [2017 WEB-DL 1080p] MVO [HDrezka Studio] WorldSM Скачать
1 | 0
T Фильмы (мультфильмы) cо спонсором показа (Новинки AVI/MKV) [ 3.3 GB ] Счастливчик / Lucky [2017 WEB-DL 1080p] MVO [Jaskier] bober100 Скачать
1 | 0

28-11-2019 20:33  

Отключить всю рекламу на сайте

10-02-2018 12:46 Счастливчик Скачать торрент  

хороший фильмpb.wtf



    Дорогой пользователь! Огромная просьба, поблагодарите релизера, оцените раздачу и оставьте свои комментарий, если Вы скачали Счастливчик через торрент бесплатно! Внесите свою лепту в развитие PiratBit!
    Комментировать посты могут только пользователи прошедшие не сложную регистрацию
    Показать сообщения:    

    Счастливчик через торрент
    Скачать бесплатно Счастливчик
    Счастливчик скачать торрент
    Счастливчик смотреть онлайн
    Cкачать фильм Счастливчик бесплатно
    Счастливчик скачать торрент в хорошем качестве
    Счастливчик смотреть онлайн бесплатно в хорошем качестве


    Вы не можете начинать темы
    Вы не можете отвечать на сообщения
    Вы не можете редактировать свои сообщения
    Вы не можете удалять свои сообщения
    Вы не можете голосовать в опросах
    Вы не можете прикреплять файлы к сообщениям
    Вы можете скачивать файлы