Anonymous, доброй ночи, присоединяйтесь к нам в Telegram!, здесь всегда актуальный адрес сайта, оперативная поддержка и многое другое!

>

5.6

iTunes

7.4

iTunes

7.9

MVO

1

7.7

1 сезон

6.8

iTunes

7.3

1 сезон

13

6.7

1 сезон

8.3

RePack

30

PREMIUM

pack

9.9

Лицензия

ВАЖНО

ИГРА 18+

pack

7.3

RePack

MK11

7.7

RePack

jed

7.8

RePack

fifa19

8.5

RePack

RDR2

RePack

NEED FOR SPEED™ PAYBACK

4 сезон

9 сезон

Бесстыжие 9 сезон

Все сериалы

все сериалы на PB.wtf

RePack

FAR CRY 5

Anonymous, доброй ночи, мы катастрофически не успеваем собрать деньги на оплату серверов, помогите нам пожалуйста 5,10,15р., для нас важна любая помощь . В качестве благодарности мы отключим Вам всю рекламу на сайте (укажите свой ник в строку Ваше имя)!

×
  
Magnet ссылка

Хоббит: Трилогия / The Hobbit: Trilogy [2012-2014, фэнтези, приключения, BDRip-HEVC 720p 60fps, Extended Cut, Дубляж, Оригинал] от R.G. HD-Films pb.wtf

Хоббит: Трилогия через торрент pb.wtf

Раздают: 15 [ 0 KB/s ] Качают: 2 [ 0 KB/s ]
Размер: 17.33 GB | Добавлен: 3 года 8 мес. назад | Торрент скачан:1414 раз
Смотреть онлайн Хоббит: Трилогия | Скачать    Ребята, помогите собрать деньги на оплату серверов!!!

10-02-2018 17:04 Хоббит: Трилогия Скачать торрент  

Данный релиз создан на основе 16-го обновления и закодирован по технологии HEVC.
Хоббит: Нежданное путешествие / The Hobbit: An Unexpected Journey
Год выпуска: 2012
Страна: США, Новая Зеландия
Жанр: фэнтези, приключения
Продолжительность: 03:02:31
Перевод: Дубляж, Оригинал
Субтитры: Русские (Форс v1, Форс v2, полные), Украинские (Форс, полны), Английские (форс, полные, SHD)

Режиссер: Питер Джексон

rating

В ролях: Мартин Фриман, Иэн МакКеллен, Ричард Армитидж, Джеймс Несбитт, Кен Стотт, Грэм МакТавиш, Дин О’Горман, Эйдан Тернер, Джед Брофи, Марк Хэдлоу, Илья Хвостиков, Василий Бочкарев, Игорь Балалаев, Владислав Копп, Алексей Борзунов

Описание: Фильм повествует о путешествии Бильбо Бэггинса, который пускается в грандиозный поход, целью которого является отвоевание утраченного королевства гномов Эребор у зловещего дракона Смауга. Совершенно неожиданно с хоббитом налаживает контакт волшебник Гэндальф Серый. Так Бильбо находит себя, присоединяясь к компании тринадцати гномов, возглавляемых легендарным воином, Торином Дубощитом. Их путешествие проляжет через Дикий Край, через предательские земли, населенные гоблинами и орками, смертоносными варгами и гигантскими пауками, народом, меняющим шкуры, и волшебниками.И хотя их цель находится на Востоке среди пустошей Одинокой Горы, сначала им придется выбраться из туннелей гоблинов, где Бильбо встретит существо, которое изменит его жизнь навсегда... Голлума.Здесь, один на один с Голлумом, на берегу подземного озера, непритязательный Бильбо Бэггинс обнаружит не только скрытые в глубине души хитрость и отвагу, которые удивят даже его, но и завладеет «прелестным» колечком Голлума, которое обладает нежданными и полезными свойствами... Простое золотое кольцо, c которым связана судьба всего Средиземья, нитями, о которых Бильбо не мог даже вообразить.

Качество: BDRip 720p / 60 FPS by Tiberiumsun69
Формат: MKV
Видео кодек: H.265
Аудио кодек: AC3
Видео: HEVC, 1280x536 (2.40:1), 3000 kbps, 59.940 fps, 0.072 bpp
Аудио#1: AC3 / 5.1 / 48 kHz / 640 kbps / 16 bit | Русский дубляж
Аудио#2: AC3 / 5.1 / 48 kHz / 448 kbps / 16 bit | Украинский дубляж
Аудио#3: AC3 / 5.1 / 48 kHz / 640 kbps / 16 bit | Original
Encoding video to: F:\Temp\0024.265
x265 10-bit depth 3000kbps 1280x536 59.940fps (656363 frames)

avs4x26x.exe: -L x265_10b.exe "F:\Temp\0024.avs" --bitrate 3000 --preset medium --profile main10 --level-idc 4.0 --sar 1:1 --output "F:\Temp\0024.265"

yuv [info]: 1280x536 fps 60000/1001 i420p8 sar 1:1 unknown frame count
raw [info]: output file: F:\Temp\0024.265
x265 [info]: HEVC encoder version 2.6+37-1949157705ce
x265 [info]: build info [Windows][MSVC 1912][64 bit] 10bit
x265 [info]: using cpu capabilities: MMX2 SSE2Fast LZCNT SSSE3 SSE4.2 AVX FMA3 BMI2 AVX2
x265 [info]: Main 10 profile, Level-4 (Main tier)
x265 [info]: Thread pool created using 8 threads
x265 [info]: Slices : 1
x265 [info]: frame threads / pool features : 3 / wpp(9 rows)
x265 [warning]: Source height < 720p; disabling lookahead-slices
x265 [info]: Coding QT: max CU size, min CU size : 64 / 8
x265 [info]: Residual QT: max TU size, max depth : 32 / 1 inter / 1 intra
x265 [info]: ME / range / subpel / merge : hex / 57 / 2 / 2
x265 [info]: Keyframe min / max / scenecut / bias: 25 / 250 / 40 / 5.00
x265 [info]: Lookahead / bframes / badapt : 20 / 4 / 2
x265 [info]: b-pyramid / weightp / weightb : 1 / 1 / 0
x265 [info]: References / ref-limit cu / depth : 3 / on / on
x265 [info]: AQ: mode / str / qg-size / cu-tree : 1 / 1.0 / 32 / 1
x265 [info]: Rate Control / qCompress : ABR-3000 kbps / 0.60
x265 [info]: tools: rd=3 psy-rd=2.00 rskip signhide tmvp strong-intra-smoothing
x265 [info]: tools: deblock sao

x265 [info]: frame I: 3522, Avg QP:17.60 kb/s: 25462.31
x265 [info]: frame P: 163656, Avg QP:17.66 kb/s: 8820.58
x265 [info]: frame B: 489185, Avg QP:24.00 kb/s: 859.10
x265 [info]: Weighted P-Frames: Y:7.9% UV:5.6%
x265 [info]: consecutive B-frames: 3.1% 2.6% 4.5% 78.3% 11.5%

encoded 656363 frames in 26772.63s (24.52 fps), 2976.21 kb/s, Avg QP:22.38

avs [info]: AviSynth 2.60, build:Feb 20 2015 [03:16:45]
avs [info]: Video colorspace: YV12
avs [info]: Video resolution: 1280x536
avs [info]: Video framerate: 60000/1001
avs [info]: Video framecount: 656363
avs4x26x [info]: "x265_10b.exe" - --bitrate 3000 --preset medium --profile main10 --level-idc 4.0 --sar 1:1 --output F:\Temp\0024.265 --frames 656363 --fps 60000/1001 --input-res 1280x536 --input-csp i420
General
Unique ID : 41635374745469722820375302061587633667 (0x1F52AE7693288108A0FA26ED38F71603)
Complete name : F:\Торренты\Хоббит BDRip-HEVC 720p 60fps\01. Нежданное путешествие.mkv
Format : Matroska
Format version : Version 4 / Version 2
File size : 6.01 GiB
Duration : 3 h 2 min
Overall bit rate : 4 710 kb/s
Movie name : The Hobbit: An Unexpected Journey (2012) Extended Cut by Tiberiumsun69
Encoded date : UTC 2018-02-10 15:41:57
Writing application : mkvmerge v20.0.0 ('I Am The Sun') 64-bit
Writing library : libebml v1.3.5 + libmatroska v1.4.8

Video
ID : 1
Format : HEVC
Format/Info : High Efficiency Video Coding
Format profile : Main 10@L4@Main
Codec ID : V_MPEGH/ISO/HEVC
Duration : 3 h 2 min
Bit rate : 2 978 kb/s
Width : 1 280 pixels
Height : 536 pixels
Display aspect ratio : 2.40:1
Frame rate mode : Constant
Frame rate : 59.940 (59940/1000) FPS
Original frame rate : 59.940 (60000/1001) FPS
Color space : YUV
Chroma subsampling : 4:2:0
Bit depth : 10 bits
Bits/(Pixel*Frame) : 0.072
Stream size : 3.80 GiB (63%)
Default : Yes
Forced : No

Audio #1
ID : 2
Format : AC-3
Format/Info : Audio Coding 3
Codec ID : A_AC3
Duration : 3 h 2 min
Bit rate mode : Constant
Bit rate : 640 kb/s
Channel(s) : 6 channels
Channel positions : Front: L C R, Side: L R, LFE
Sampling rate : 48.0 kHz
Frame rate : 31.250 FPS (1536 SPF)
Bit depth : 16 bits
Compression mode : Lossy
Stream size : 836 MiB (14%)
Title : Dub | DD 5.1 @ 640 kbps
Language : Russian
Service kind : Complete Main
Default : Yes
Forced : Yes

Audio #2
ID : 3
Format : AC-3
Format/Info : Audio Coding 3
Codec ID : A_AC3
Duration : 3 h 2 min
Bit rate mode : Constant
Bit rate : 448 kb/s
Channel(s) : 6 channels
Channel positions : Front: L C R, Side: L R, LFE
Sampling rate : 48.0 kHz
Frame rate : 31.250 FPS (1536 SPF)
Bit depth : 16 bits
Compression mode : Lossy
Stream size : 585 MiB (10%)
Title : Dub | DD 5.1 @ 448 kbps - Blu-ray CEE
Language : Ukrainian
Service kind : Complete Main
Default : No
Forced : No

Audio #3
ID : 4
Format : AC-3
Format/Info : Audio Coding 3
Codec ID : A_AC3
Duration : 3 h 2 min
Bit rate mode : Constant
Bit rate : 640 kb/s
Channel(s) : 6 channels
Channel positions : Front: L C R, Side: L R, LFE
Sampling rate : 48.0 kHz
Frame rate : 31.250 FPS (1536 SPF)
Bit depth : 16 bits
Compression mode : Lossy
Stream size : 836 MiB (14%)
Title : Original | DD 5.1 @ 640 kbps
Language : English
Service kind : Complete Main
Default : No
Forced : No

Text #1
ID : 5
Format : UTF-8
Codec ID : S_TEXT/UTF8
Codec ID/Info : UTF-8 Plain Text
Duration : 3 h 0 min
Bit rate : 1 b/s
Count of elements : 57
Stream size : 1.94 KiB (0%)
Title : Forced v1
Language : Russian
Default : Yes
Forced : No

Text #2
ID : 6
Format : UTF-8
Codec ID : S_TEXT/UTF8
Codec ID/Info : UTF-8 Plain Text
Duration : 2 h 37 min
Bit rate : 1 b/s
Count of elements : 47
Stream size : 1.86 KiB (0%)
Title : Forced v2
Language : Russian
Default : No
Forced : No

Text #3
ID : 7
Format : UTF-8
Codec ID : S_TEXT/UTF8
Codec ID/Info : UTF-8 Plain Text
Duration : 3 h 0 min
Bit rate : 55 b/s
Count of elements : 2155
Stream size : 74.2 KiB (0%)
Title : Blu-ray
Language : Russian
Default : No
Forced : No

Text #4
ID : 8
Format : UTF-8
Codec ID : S_TEXT/UTF8
Codec ID/Info : UTF-8 Plain Text
Duration : 2 h 43 min
Bit rate : 1 b/s
Count of elements : 55
Stream size : 1.90 KiB (0%)
Title : Forced
Language : Ukrainian
Default : No
Forced : No

Text #5
ID : 9
Format : UTF-8
Codec ID : S_TEXT/UTF8
Codec ID/Info : UTF-8 Plain Text
Duration : 3 h 0 min
Bit rate : 61 b/s
Count of elements : 2205
Stream size : 82.1 KiB (0%)
Title : Full
Language : Ukrainian
Default : No
Forced : No

Text #6
ID : 10
Format : UTF-8
Codec ID : S_TEXT/UTF8
Codec ID/Info : UTF-8 Plain Text
Duration : 2 h 30 min
Bit rate : 1 b/s
Count of elements : 47
Stream size : 1.17 KiB (0%)
Title : Forced
Language : English
Default : No
Forced : No

Text #7
ID : 11
Format : UTF-8
Codec ID : S_TEXT/UTF8
Codec ID/Info : UTF-8 Plain Text
Duration : 2 h 55 min
Bit rate : 44 b/s
Count of elements : 2187
Stream size : 56.8 KiB (0%)
Title : Full
Language : English
Default : No
Forced : No

Text #8
ID : 12
Format : UTF-8
Codec ID : S_TEXT/UTF8
Codec ID/Info : UTF-8 Plain Text
Duration : 3 h 1 min
Bit rate : 49 b/s
Count of elements : 2476
Stream size : 66.2 KiB (0%)
Title : SDH
Language : English
Default : No
Forced : No

Menu
00:00:00.000 : en:en:Prologue: The Fall of Erebor
00:10:11.902 : en:en:"In a Hole in the Ground There Lived a Hobbit"
00:14:08.721 : en:en:Very Old Friends
00:17:27.250 : en:en:Mr. Baggins
00:18:44.623 : en:en:An Unexpected Party
00:23:16.603 : en:en:"Blunt the Knives"
00:27:59.469 : en:en:A Map, A Key and A Contract
00:36:04.871 : en:en:"Misty Mountains"
00:41:17.266 : en:en:"...The World Ahead"
00:46:30.829 : en:en:The Battle of Azanulbizar
00:53:04.181 : en:en:Radagast the Brown
00:58:07.650 : en:en:Trollshaws
00:59:55.300 : en:en:Roast Mutton
01:10:42.404 : en:en:A Troll-hoard
01:15:01.828 : en:en:The Hill of Sorcery
01:18:52.810 : en:en:Warg-scouts
01:24:56.925 : en:en:Rivendell
01:30:34.429 : en:en:A Short Rest
01:34:10.603 : en:en:Moon Runes
01:37:24.462 : en:en:The Defiler
01:39:03.479 : en:en:The Last Homely House
01:41:40.801 : en:en:The White Council
01:50:22.532 : en:en:"Why the Halfling?"
01:52:59.773 : en:en:Over Hill
01:59:06.345 : en:en:Under Hill
02:03:57.511 : en:en:The Great Goblin
02:09:51.573 : en:en:Riddles in the Dark
02:23:21.424 : en:en:Biter and Beater
02:25:18.876 : en:en:The Ring
02:26:31.199 : en:en:Escape from Goblin Town
02:30:52.915 : en:en:The Pity of Bilbo
02:33:00.546 : en:en:"Home is Behind..."
02:35:52.593 : en:en:Out of the Frying Pan...
02:46:51.209 : en:en:A Good Omen
02:52:21.370 : en:en:Credits
Хоббит: Пустошь Смауга / The Hobbit: The Desolation of Smaug
Год выпуска: 2013
Страна: США, Новая Зеландия
Жанр: фэнтези, приключения
Продолжительность: 3:06:34
Перевод: Дубляж, Оригинал
Субтитры: Русские (Форс, полные), Украинские (Форс, полные), Английские (полные, SDH, SDH-Colored)

Режиссер: Питер Джексон

rating

В ролях: Мартин Фриман, Ричард Армитедж, Иэн МакКеллен, Эванджелин Лилли, Орландо Блум, Люк Эванс, Бенедикт Камбербэтч, Ли Пейс, Кен Стотт, Эйдан Тернер...

Описание: Продолжение путешествия хоббита Бильбо Бэггинса, волшебника Гэндальфа и 13 отважных гномов. Их компания обязана завершить своё путешествие к Одинокой горе. Там они должны встретиться с величайшей опасностью из всех — созданием куда более ужасающим, чем все их прошлые противники, которое проверит на прочность не только их мужество, но крепость их дружбы и правильность выбранного пути, — драконом Смаугом.

Качество: BDRip 720p / 60 FPS by Tiberiumsun69
Формат: MKV
Видео кодек: H.265
Аудио кодек: AC3
Видео: HEVC, 1280x536 (2.40:1), 3000 kbps, 59.940 fps, 0.072 bpp
Аудио#1: AC3 / 5.1 / 48 kHz / 640 kbps / 16 bit | Русский дубляж
Аудио#2: AC3 / 5.1 / 48 kHz / 448 kbps / 16 bit | Украинский дубляж
Аудио#3: AC3 / 5.1 / 48 kHz / 640 kbps / 16 bit | Оригинал
Encoding video to: F:\Temp\0026.265
x265 10-bit depth 3000kbps 1280x536 59.940fps (670981 frames)

avs4x26x.exe: -L x265_10b.exe "F:\Temp\0026.avs" --bitrate 3000 --preset medium --profile main10 --level-idc 4.0 --sar 1:1 --output "F:\Temp\0026.265"

yuv [info]: 1280x536 fps 60000/1001 i420p8 sar 1:1 unknown frame count
raw [info]: output file: F:\Temp\0026.265
x265 [info]: HEVC encoder version 2.6+37-1949157705ce
x265 [info]: build info [Windows][MSVC 1912][64 bit] 10bit
x265 [info]: using cpu capabilities: MMX2 SSE2Fast LZCNT SSSE3 SSE4.2 AVX FMA3 BMI2 AVX2
x265 [info]: Main 10 profile, Level-4 (Main tier)
x265 [info]: Thread pool created using 8 threads
x265 [info]: Slices : 1
x265 [info]: frame threads / pool features : 3 / wpp(9 rows)
x265 [warning]: Source height < 720p; disabling lookahead-slices
x265 [info]: Coding QT: max CU size, min CU size : 64 / 8
x265 [info]: Residual QT: max TU size, max depth : 32 / 1 inter / 1 intra
x265 [info]: ME / range / subpel / merge : hex / 57 / 2 / 2
x265 [info]: Keyframe min / max / scenecut / bias: 25 / 250 / 40 / 5.00
x265 [info]: Lookahead / bframes / badapt : 20 / 4 / 2
x265 [info]: b-pyramid / weightp / weightb : 1 / 1 / 0
x265 [info]: References / ref-limit cu / depth : 3 / on / on
x265 [info]: AQ: mode / str / qg-size / cu-tree : 1 / 1.0 / 32 / 1
x265 [info]: Rate Control / qCompress : ABR-3000 kbps / 0.60
x265 [info]: tools: rd=3 psy-rd=2.00 rskip signhide tmvp strong-intra-smoothing
x265 [info]: tools: deblock sao

x265 [info]: frame I: 3900, Avg QP:17.11 kb/s: 22101.86
x265 [info]: frame P: 167606, Avg QP:17.04 kb/s: 8574.39
x265 [info]: frame B: 499475, Avg QP:23.37 kb/s: 937.71
x265 [info]: Weighted P-Frames: Y:7.1% UV:4.5%
x265 [info]: consecutive B-frames: 3.6% 2.3% 4.9% 77.9% 11.4%

encoded 670981 frames in 27374.53s (24.51 fps), 2968.31 kb/s, Avg QP:21.75

avs [info]: AviSynth 2.60, build:Feb 20 2015 [03:16:45]
avs [info]: Video colorspace: YV12
avs [info]: Video resolution: 1280x536
avs [info]: Video framerate: 60000/1001
avs [info]: Video framecount: 670981
avs4x26x [info]: "x265_10b.exe" - --bitrate 3000 --preset medium --profile main10 --level-idc 4.0 --sar 1:1 --output F:\Temp\0026.265 --frames 670981 --fps 60000/1001 --input-res 1280x536 --input-csp i420
General
Unique ID : 173956077986091648364371892065074876656 (0x82DEB8D261818AE2A013A7D573C310F0)
Complete name : F:\Торренты\Хоббит BDRip-HEVC 720p 60fps\02. Пустошь Смауга.mkv
Format : Matroska
Format version : Version 4 / Version 2
File size : 6.13 GiB
Duration : 3 h 6 min
Overall bit rate : 4 702 kb/s
Movie name : The Hobbit: The Desolation Of Smaug (2013) Exteded Cut by Tiberiumsun69
Encoded date : UTC 2018-02-10 15:46:29
Writing application : mkvmerge v20.0.0 ('I Am The Sun') 64-bit
Writing library : libebml v1.3.5 + libmatroska v1.4.8

Video
ID : 1
Format : HEVC
Format/Info : High Efficiency Video Coding
Format profile : Main 10@L4@Main
Codec ID : V_MPEGH/ISO/HEVC
Duration : 3 h 6 min
Bit rate : 2 970 kb/s
Width : 1 280 pixels
Height : 536 pixels
Display aspect ratio : 2.40:1
Frame rate mode : Constant
Frame rate : 59.940 (59940/1000) FPS
Original frame rate : 59.940 (60000/1001) FPS
Color space : YUV
Chroma subsampling : 4:2:0
Bit depth : 10 bits
Bits/(Pixel*Frame) : 0.072
Stream size : 3.87 GiB (63%)
Default : Yes
Forced : No

Audio #1
ID : 2
Format : AC-3
Format/Info : Audio Coding 3
Codec ID : A_AC3
Duration : 3 h 6 min
Bit rate mode : Constant
Bit rate : 640 kb/s
Channel(s) : 6 channels
Channel positions : Front: L C R, Side: L R, LFE
Sampling rate : 48.0 kHz
Frame rate : 31.250 FPS (1536 SPF)
Bit depth : 16 bits
Compression mode : Lossy
Stream size : 854 MiB (14%)
Title : Dub | DD 5.1 @ 640 kbps
Language : Russian
Service kind : Complete Main
Default : Yes
Forced : No

Audio #2
ID : 3
Format : AC-3
Format/Info : Audio Coding 3
Codec ID : A_AC3
Duration : 3 h 6 min
Bit rate mode : Constant
Bit rate : 448 kb/s
Channel(s) : 6 channels
Channel positions : Front: L C R, Side: L R, LFE
Sampling rate : 48.0 kHz
Frame rate : 31.250 FPS (1536 SPF)
Bit depth : 16 bits
Compression mode : Lossy
Stream size : 598 MiB (10%)
Title : Dub | DD 5.1 @ 448 kbps - Blu-Ray CEE
Language : Ukrainian
Service kind : Complete Main
Default : No
Forced : No

Audio #3
ID : 4
Format : AC-3
Format/Info : Audio Coding 3
Codec ID : A_AC3
Duration : 3 h 6 min
Bit rate mode : Constant
Bit rate : 640 kb/s
Channel(s) : 6 channels
Channel positions : Front: L C R, Side: L R, LFE
Sampling rate : 48.0 kHz
Frame rate : 31.250 FPS (1536 SPF)
Bit depth : 16 bits
Compression mode : Lossy
Stream size : 854 MiB (14%)
Title : Original | DD 5.1 @ 640 kbps
Language : English
Service kind : Complete Main
Default : No
Forced : No

Text #1
ID : 5
Format : UTF-8
Codec ID : S_TEXT/UTF8
Codec ID/Info : UTF-8 Plain Text
Duration : 3 h 4 min
Bit rate : 2 b/s
Count of elements : 99
Stream size : 2.84 KiB (0%)
Title : Forced
Language : Russian
Default : Yes
Forced : No

Text #2
ID : 6
Format : UTF-8
Codec ID : S_TEXT/UTF8
Codec ID/Info : UTF-8 Plain Text
Duration : 3 h 5 min
Bit rate : 49 b/s
Count of elements : 2124
Stream size : 67.4 KiB (0%)
Title : Blu-ray
Language : Russian
Default : No
Forced : No

Text #3
ID : 7
Format : UTF-8
Codec ID : S_TEXT/UTF8
Codec ID/Info : UTF-8 Plain Text
Duration : 3 h 5 min
Bit rate : 15 b/s
Count of elements : 513
Stream size : 21.3 KiB (0%)
Title : Forced
Language : Ukrainian
Default : No
Forced : No

Text #4
ID : 8
Format : UTF-8
Codec ID : S_TEXT/UTF8
Codec ID/Info : UTF-8 Plain Text
Duration : 3 h 5 min
Bit rate : 53 b/s
Count of elements : 2124
Stream size : 72.4 KiB (0%)
Title : Full
Language : Ukrainian
Default : No
Forced : No

Text #5
ID : 9
Format : UTF-8
Codec ID : S_TEXT/UTF8
Codec ID/Info : UTF-8 Plain Text
Duration : 2 h 54 min
Bit rate : 38 b/s
Count of elements : 2035
Stream size : 48.7 KiB (0%)
Title : Full
Language : English
Default : No
Forced : No

Text #6
ID : 10
Format : UTF-8
Codec ID : S_TEXT/UTF8
Codec ID/Info : UTF-8 Plain Text
Duration : 3 h 5 min
Bit rate : 40 b/s
Count of elements : 2282
Stream size : 54.4 KiB (0%)
Title : SDH
Language : English
Default : No
Forced : No

Text #7
ID : 11
Format : UTF-8
Codec ID : S_TEXT/UTF8
Codec ID/Info : UTF-8 Plain Text
Duration : 3 h 5 min
Bit rate : 51 b/s
Count of elements : 2282
Stream size : 70.3 KiB (0%)
Title : SDH-Colored
Language : English
Default : No
Forced : No

Menu
00:00:00.000 : en:00:00:00.000
00:07:33.411 : en:00:07:33.411
00:12:00.303 : en:00:12:00.303
00:12:59.445 : en:00:12:59.445
00:15:55.371 : en:00:15:55.371
00:20:56.922 : en:00:20:56.922
00:23:15.436 : en:00:23:15.436
00:25:52.676 : en:00:25:52.676
00:29:59.256 : en:00:29:59.256
00:38:14.042 : en:00:38:14.042
00:46:43.843 : en:00:46:43.843
00:49:46.317 : en:00:49:46.317
00:53:19.530 : en:00:53:19.530
00:55:10.224 : en:00:55:10.224
00:58:07.859 : en:00:58:07.859
01:08:42.327 : en:01:08:42.327
01:12:22.338 : en:01:12:22.338
01:15:45.708 : en:01:15:45.708
01:19:10.162 : en:01:19:10.162
01:22:46.837 : en:01:22:46.837
01:25:09.688 : en:01:25:09.688
01:28:07.741 : en:01:28:07.741
01:31:15.553 : en:01:31:15.553
01:36:02.757 : en:01:36:02.757
01:37:35.892 : en:01:37:35.892
01:40:35.404 : en:01:40:35.404
01:45:16.519 : en:01:45:16.519
01:48:44.476 : en:01:48:44.476
01:50:31.750 : en:01:50:31.750
01:52:36.541 : en:01:52:36.541
01:53:08.448 : en:01:53:08.448
01:59:16.358 : en:01:59:16.358
02:07:11.833 : en:02:07:11.833
02:07:39.110 : en:02:07:39.110
02:09:22.672 : en:02:09:22.672
02:12:48.586 : en:02:12:48.586
02:22:00.846 : en:02:22:00.846
02:22:43.430 : en:02:22:43.430
02:23:17.923 : en:02:23:17.923
02:24:56.396 : en:02:24:56.396
02:26:45.088 : en:02:26:45.088
02:29:18.825 : en:02:29:18.825
02:33:12.975 : en:02:33:12.975
02:34:57.622 : en:02:34:57.622
02:36:13.155 : en:02:36:13.155
02:37:45.956 : en:02:37:45.956
02:39:08.831 : en:02:39:08.831
02:41:39.940 : en:02:41:39.940
02:44:06.003 : en:02:44:06.003
02:51:16.683 : en:02:51:16.683
02:56:05.555 : en:02:56:05.555
Хоббит: Битва пяти воинств / The Hobbit: The Battle of the Five Armies
Год выпуска: 2014
Страна: Новая Зеландия, США
Жанр: фэнтези, приключения
Продолжительность: 02:44:02
Перевод: Дубляж, Оригинал
Субтитры: Русские (Форс, полные), Украинские (Форс, полные), Английские (полные, SDH)

Режиссер: Питер Джексон

rating

В ролях: Мартин Фриман, Иэн МакКеллен, Ричард Армитедж, Джеймс Несбитт, Кен Стотт, Грэм МакТавиш, Уильям Кирчер, Стивен Хантер, Дин О’Горман, Эйдан Тернер

Описание: Когда отряд из тринадцати гномов нанимал хоббита Бильбо Бэгинса в качестве взломщика и четырнадцатого, «счастливого», участника похода к Одинокой горе, Бильбо полагал, что его приключения закончатся, когда он выполнит свою задачу — найдет сокровище, которое так необходимо предводителю гномов Торину. Путешествие в Эребор, захваченное драконом Смаугом королевство гномов, оказалось еще более опасным, чем предполагали гномы и даже Гэндальф — мудрый волшебник, протянувший Торину и его отряду руку помощи.
В погоню за гномами устремилась армия орков, ведомых пробудившимся в руинах древним злом, а эльфы и люди, с которыми Бильбо и его товарищам пришлось иметь дело во время путешествия и которые пострадали от последствий желания гномов вернуть свой дом, предъявили права на щедрое вознаграждение — часть сокровищ Одинокой горы. Скоро неподалеку от Одинокой горы встретятся пять армий, и лишь кровопролитная битва определит результаты смелого гномьего похода.

Качество: BDRip 720p / 60 FPS by Tiberiumsun69
Формат: MKV
Видео кодек: H.265
Аудио кодек: AC3
Видео: HEVC, 1280x536 (2.40:1), 3000 kbps, 59.940 fps, 0.073 bpp
Аудио#1: AC3 / 5.1 / 48 kHz / 448 kbps / 16 bit | Русский дубляж
Аудио#2: AC3 / 5.1 / 48 kHz / 448 kbps / 16 bit | Украинский дубляж
Аудио#3: AC3 / 5.1 / 48 kHz / 640 kbps / 16 bit | Оригинал
Encoding video to: F:\Temp\0029.265
x265 10-bit depth 3000kbps 1280x536 59.940fps (589936 frames)

avs4x26x.exe: -L x265_10b.exe "F:\Temp\0029.avs" --bitrate 3000 --preset medium --profile main10 --level-idc 4.0 --sar 1:1 --output "F:\Temp\0029.265"

yuv [info]: 1280x536 fps 60000/1001 i420p8 sar 1:1 unknown frame count
raw [info]: output file: F:\Temp\0029.265
x265 [info]: HEVC encoder version 2.6+37-1949157705ce
x265 [info]: build info [Windows][MSVC 1912][64 bit] 10bit
x265 [info]: using cpu capabilities: MMX2 SSE2Fast LZCNT SSSE3 SSE4.2 AVX FMA3 BMI2 AVX2
x265 [info]: Main 10 profile, Level-4 (Main tier)
x265 [info]: Thread pool created using 8 threads
x265 [info]: Slices : 1
x265 [info]: frame threads / pool features : 3 / wpp(9 rows)
x265 [warning]: Source height < 720p; disabling lookahead-slices
x265 [info]: Coding QT: max CU size, min CU size : 64 / 8
x265 [info]: Residual QT: max TU size, max depth : 32 / 1 inter / 1 intra
x265 [info]: ME / range / subpel / merge : hex / 57 / 2 / 2
x265 [info]: Keyframe min / max / scenecut / bias: 25 / 250 / 40 / 5.00
x265 [info]: Lookahead / bframes / badapt : 20 / 4 / 2
x265 [info]: b-pyramid / weightp / weightb : 1 / 1 / 0
x265 [info]: References / ref-limit cu / depth : 3 / on / on
x265 [info]: AQ: mode / str / qg-size / cu-tree : 1 / 1.0 / 32 / 1
x265 [info]: Rate Control / qCompress : ABR-3000 kbps / 0.60
x265 [info]: tools: rd=3 psy-rd=2.00 rskip signhide tmvp strong-intra-smoothing
x265 [info]: tools: deblock sao

x265 [info]: frame I: 3364, Avg QP:20.16 kb/s: 25940.73
x265 [info]: frame P: 148786, Avg QP:20.21 kb/s: 8514.34
x265 [info]: frame B: 437786, Avg QP:26.72 kb/s: 939.08
x265 [info]: Weighted P-Frames: Y:6.3% UV:3.4%
x265 [info]: consecutive B-frames: 3.5% 2.4% 5.0% 81.1% 8.0%

encoded 589936 frames in 25076.73s (23.53 fps), 2992.18 kb/s, Avg QP:25.04

avs [info]: AviSynth 2.60, build:Feb 20 2015 [03:16:45]
avs [info]: Video colorspace: YV12
avs [info]: Video resolution: 1280x536
avs [info]: Video framerate: 60000/1001
avs [info]: Video framecount: 589936
avs4x26x [info]: "x265_10b.exe" - --bitrate 3000 --preset medium --profile main10 --level-idc 4.0 --sar 1:1 --output F:\Temp\0029.265 --frames 589936 --fps 60000/1001 --input-res 1280x536 --input-csp i420
General
Unique ID : 233406509041503828604297267465283507241 (0xAF9875601C7EEDE93F4D99E003F11429)
Complete name : F:\Торренты\Хоббит BDRip-HEVC 720p 60fps\03. Битва пяти воинств.mkv
Format : Matroska
Format version : Version 4 / Version 2
File size : 5.20 GiB
Duration : 2 h 44 min
Overall bit rate : 4 534 kb/s
Movie name : The Hobbit: The Battle of the Five Armies (2014) Extended Cut by Tiberiumsun69
Encoded date : UTC 2018-02-10 15:50:07
Writing application : mkvmerge v20.0.0 ('I Am The Sun') 64-bit
Writing library : libebml v1.3.5 + libmatroska v1.4.8

Video
ID : 1
Format : HEVC
Format/Info : High Efficiency Video Coding
Format profile : Main 10@L4@Main
Codec ID : V_MPEGH/ISO/HEVC
Duration : 2 h 44 min
Bit rate : 2 994 kb/s
Width : 1 280 pixels
Height : 536 pixels
Display aspect ratio : 2.40:1
Frame rate mode : Constant
Frame rate : 59.940 (59940/1000) FPS
Original frame rate : 59.940 (60000/1001) FPS
Color space : YUV
Chroma subsampling : 4:2:0
Bit depth : 10 bits
Bits/(Pixel*Frame) : 0.073
Stream size : 3.43 GiB (66%)
Default : Yes
Forced : No

Audio #1
ID : 2
Format : AC-3
Format/Info : Audio Coding 3
Codec ID : A_AC3
Duration : 2 h 44 min
Bit rate mode : Constant
Bit rate : 448 kb/s
Channel(s) : 6 channels
Channel positions : Front: L C R, Side: L R, LFE
Sampling rate : 48.0 kHz
Frame rate : 31.250 FPS (1536 SPF)
Bit depth : 16 bits
Compression mode : Lossy
Stream size : 526 MiB (10%)
Title : Dub | DD 5.1 @ 448 kbps - Blu-Ray CEE + Yu.Serbin
Language : Russian
Service kind : Complete Main
Default : Yes
Forced : No

Audio #2
ID : 3
Format : AC-3
Format/Info : Audio Coding 3
Codec ID : A_AC3
Duration : 2 h 44 min
Bit rate mode : Constant
Bit rate : 448 kb/s
Channel(s) : 6 channels
Channel positions : Front: L C R, Side: L R, LFE
Sampling rate : 48.0 kHz
Frame rate : 31.250 FPS (1536 SPF)
Bit depth : 16 bits
Compression mode : Lossy
Stream size : 526 MiB (10%)
Title : Dub | DD 5.1 @ 448 kbps - Blu-Ray CEE
Language : Ukrainian
Service kind : Complete Main
Default : No
Forced : No

Audio #3
ID : 4
Format : AC-3
Format/Info : Audio Coding 3
Codec ID : A_AC3
Duration : 2 h 44 min
Bit rate mode : Constant
Bit rate : 640 kb/s
Channel(s) : 6 channels
Channel positions : Front: L C R, Side: L R, LFE
Sampling rate : 48.0 kHz
Frame rate : 31.250 FPS (1536 SPF)
Bit depth : 16 bits
Compression mode : Lossy
Stream size : 751 MiB (14%)
Title : Original | DD 5.1 @ 640 kbps
Language : English
Service kind : Complete Main
Default : No
Forced : No

Text #1
ID : 5
Format : UTF-8
Codec ID : S_TEXT/UTF8
Codec ID/Info : UTF-8 Plain Text
Duration : 2 h 28 min
Bit rate : 3 b/s
Count of elements : 98
Stream size : 3.47 KiB (0%)
Title : Forced
Language : Russian
Default : Yes
Forced : No

Text #2
ID : 6
Format : UTF-8
Codec ID : S_TEXT/UTF8
Codec ID/Info : UTF-8 Plain Text
Duration : 2 h 42 min
Bit rate : 39 b/s
Count of elements : 1534
Stream size : 46.7 KiB (0%)
Title : iTunes
Language : Russian
Default : No
Forced : No

Text #3
ID : 7
Format : UTF-8
Codec ID : S_TEXT/UTF8
Codec ID/Info : UTF-8 Plain Text
Duration : 2 h 28 min
Bit rate : 3 b/s
Count of elements : 99
Stream size : 3.43 KiB (0%)
Title : Forced
Language : Ukrainian
Default : No
Forced : No

Text #4
ID : 8
Format : UTF-8
Codec ID : S_TEXT/UTF8
Codec ID/Info : UTF-8 Plain Text
Duration : 2 h 42 min
Bit rate : 39 b/s
Count of elements : 1536
Stream size : 47.1 KiB (0%)
Title : iTunes
Language : Ukrainian
Default : No
Forced : No

Text #5
ID : 9
Format : UTF-8
Codec ID : S_TEXT/UTF8
Codec ID/Info : UTF-8 Plain Text
Duration : 2 h 29 min
Bit rate : 29 b/s
Count of elements : 1462
Stream size : 32.8 KiB (0%)
Title : Full
Language : English
Default : No
Forced : No

Text #6
ID : 10
Format : UTF-8
Codec ID : S_TEXT/UTF8
Codec ID/Info : UTF-8 Plain Text
Duration : 2 h 29 min
Bit rate : 34 b/s
Count of elements : 1712
Stream size : 38.3 KiB (0%)
Title : SDH
Language : English
Default : No
Forced : No

Menu
00:00:00.000 : en:Fire and Water
00:05:12.061 : en:Bard the Dragon-Slayer
00:12:47.016 : en:Dungeons of the Dark Lord
00:13:18.964 : en:Shores of the Long Lake
00:18:57.219 : en:Not at Home
00:23:42.003 : en:Others will Now Look to the Mountain
00:24:56.119 : en:Legions of the Defiler
00:26:04.354 : en:The Mark of Gundabad
00:27:32.984 : en:Attack on Dol Guldur
00:35:45.351 : en:Summon Our Friends
00:36:41.073 : en:The King's Jewel
00:40:41.898 : en:The Ruins of Dale
00:42:01.144 : en:Erebor Fortified
00:43:11.756 : en:The Elvenking's Aid
00:46:16.148 : en:The Gathering of the Clouds
00:51:27.668 : en:A Token of Friendship
00:54:57.961 : en:The Shadow of Gundabad
00:56:14.830 : en:The Last Move in a Master Plan
00:58:31.299 : en:Bolg of the North
01:00:26.957 : en:The Night Watch
01:02:43.593 : en:A Thief in the Night
01:06:10.175 : en:An Honest Burglar
01:12:23.297 : en:Dain Ironfoot
01:17:22.555 : en:The Clouds Burst
01:20:36.331 : en:The Battle at Dale
01:24:57.217 : en:The Darkest Hour
01:28:41.775 : en:Dragon-Sickness
01:30:52.280 : en:The Return of Thorin Oakenshild
01:33:02.159 : en:Sons of Durin
01:35:12.832 : en:"To the King!"
01:38:32.489 : en:A Call to Arms
01:39:42.893 : en:Thorin's Plan
01:41:00.596 : en:The War Chariot
01:45:03.505 : en:Courage and Cowardice
01:47:13.635 : en:The Fifth Army
01:49:05.288 : en:Scouting Ravenhill
01:50:03.013 : en:Blood of the Eldar
01:52:59.606 : en:An Unforeseen Remedy
01:53:51.282 : en:The Fallen
01:57:15.236 : en:The Battle at Ravenhill
02:05:38.572 : en:To the Death
02:12:07.044 : en:Parting in Friendship
02:20:07.440 : en:King under the Mountain
02:22:27.205 : en:The Return Journey
02:26:11.596 : en:The Last Stage
02:30:54.462 : en:Credits
Просьба к переливающим на другие сайты, в оформлении указывайте пожалуйста авторство группы Ссылка на биткоин кошелек - 1DWGvzWwL9gYLWXkozc7RAoU6KmFnCsWsi Авторская группа в ВК
pb.wtf



Скачать Хоббит: Трилогия через торрент http://i70.fastpic.ru/big/2015/0628/29/799998543397a6387101f47501481629.jpg Скачать, смотреть онлайн Хоббит: Трилогия бесплантно в хорошем качестве Описание: Фильм повествует о путешествии Бильбо Бэггинса, который пускается в грандиозный поход, целью которого является отвоевание ... 9.9 10 28
Info! Золотая раздача, скачанное не засчитывается.
Торрент: Зарегистрирован [2018-02-10 17:04] · скачан: 1 414 раз
Статус: √ проверено
Размер: 17.33 GB
Как cкачать? Как скачать Хоббит: Трилогия через торрент | UTorrent

% Раздел Тема Автор DL S | L
Сборники и Сиквелы (48-60 fps) [ 11.93 GB ] Хоббит: Трилогия / The Hobbit: Trilogy [2012-2014 Новая Зеландия BDRip-AVC 60fps ] от R.G. HD-Films Tiberiumsun69 Скачать
21 | 0

28-11-2019 20:33  

Отключить всю рекламу на сайте

10-02-2018 17:06 Хоббит: Трилогия Скачать торрент  

Всем привет а так же приятного просмотра.pb.wtf



10-02-2018 17:18 Хоббит: Трилогия Скачать торрент  

забираю...еще бы властелина колец для полной коллекции в таком же качестве... pb.wtf



10-02-2018 18:18 Хоббит: Трилогия Скачать торрент  

НиколайНиколаевич Спасибо большое.

pro100chin, В процессе.pb.wtf



11-02-2018 05:27 Хоббит: Трилогия Скачать торрент  

фильм не очень, я бы сделал намного мрачнееpb.wtf



05-12-2020 12:13 Хоббит: Трилогия Скачать торрент  

где перевод черти?pb.wtf



    Дорогой пользователь! Огромная просьба, поблагодарите релизера, оцените раздачу и оставьте свои комментарий, если Вы скачали Хоббит: Трилогия через торрент бесплатно!
    Комментировать посты могут только пользователи прошедшие не сложную регистрацию
    Показать сообщения:    

    Хоббит: Трилогия через торрент
    Скачать бесплатно Хоббит: Трилогия
    Хоббит: Трилогия скачать торрент
    Хоббит: Трилогия смотреть онлайн
    Cкачать фильм Хоббит: Трилогия бесплатно
    Хоббит: Трилогия скачать торрент в хорошем качестве
    Хоббит: Трилогия смотреть онлайн бесплатно в хорошем качестве


    Вы не можете начинать темы
    Вы не можете отвечать на сообщения
    Вы не можете редактировать свои сообщения
    Вы не можете удалять свои сообщения
    Вы не можете голосовать в опросах
    Вы не можете прикреплять файлы к сообщениям
    Вы можете скачивать файлы