Ссылка на приватное зеркало всего за 1$. Внимание количество ограничено!!!

OK

1+1

iTunes

мы

OK

1

WEB-DLRip

Джокер

Пифагор

Ведьмак / The Witcher сериал

iTunes

ПШазам

ОК

Оно 2

iTunes

30
pack

Вам бонус

ВАЖНО

!!Акция!!

Alien_RageХит недели

RePack

Resident Evil 21

ИГРА 18+

pack

RePack

jed

RePack

fifa19

RePack

Assassins Creed: Odyssey

RePack

NEED FOR SPEED™ PAYBACK

4 сезон

9 сезон

Бесстыжие 9 сезон

Все сериалы

все сериалы на PB.wtf

RePack

FAR CRY 5
  

Смертельная игра / Headgame (Стивен Джудд) [2018, ужасы, BDRip 720p] MVO ["Синема УС] pb.wtf

Смертельная игра через торрент pb.wtf

Размер: 3.96 GB | Добавлен: 1 год 11 мес. назад | Торрент скачан:96 раз
Скачать  

10-02-2018 17:51 Смертельная игра Скачать торрент  

Смертельная игра / HeadgameГод выпуска: 2018
Страна: США
Жанр: ужасы
Продолжительность: 01:33:07
Перевод: Любительский (многоголосый) ["Синема УС]
Субтитры: отсутствуют

Режиссер: Стивен Джудд

rating

В ролях:

Леонард Робертс, Джэми Хилл, Ханна Миддлтон, Карли Стил, Камерон Бауэн, Сидни Эллисон, Эдуард Гелхаус, Крис Хэйес, Прессли Кокер, Марина Орлова

Описание:

Группа молодых людей просыпаются и обнаруживают себя запертыми на складе. У каждого из них во лбу камера. Вскоре становится ясно, что им придется против своей воли участвовать в смертельной игре и убивать друг друга, для того чтобы выжить и победить

Качество: BDRip 720p
Формат: MKV

Видео: 5639 Кбит/с, 1280x720
Аудио#1: AC3, 2 ch, 448 Кбит/с

скриншот  скриншот  скриншот  

Общее
Уникальный идентификатор : 182350248136743836240923375150910198563 (0x892F615CFFB45C21A3742D6A2FACD323)
Полное имя : D:\Headgame.2018.P.BDRip.72Op_KOSHARA.mkv
Формат : Matroska
Версия формата : Version 2
Размер файла : 3,96 Гбайт
Продолжительность : 1 ч. 33 м.
Режим общего битрейта : Переменный
Общий поток : 6089 Кбит/сек
Дата кодирования : UTC 2018-02-10 05:45:52
Программа кодирования : mkvmerge v8.3.0 ('Over the Horizon') 64bit
Библиотека кодирования : libebml v1.3.1 + libmatroska v1.4.2

Видео
Идентификатор : 1
Формат : AVC
Формат/Информация : Advanced Video Codec
Профиль формата : High@L4.1
Параметр CABAC формата : Да
Параметр ReFrames формата : 4 кадра
Идентификатор кодека : V_MPEG4/ISO/AVC
Продолжительность : 1 ч. 33 м.
Вид битрейта : Переменный
Битрейт : 5639 Кбит/сек
Номинальный битрейт : 6400 Кбит/сек
Максимальный битрейт : 6400 Кбит/сек
Ширина : 1280 пикселей
Высота : 720 пикселей
Соотношение сторон : 16:9
Режим частоты кадров : Постоянный
Частота кадров : 23,976 (24000/1001) кадра/сек
Стандарт вещания : Component
Цветовое пространство : YUV
Субдискретизация насыщенности : 4:2:0
Битовая глубина : 8 бит
Тип развёртки : Прогрессивная
Бит/(Пиксели*Кадры) : 0.250
Размер потока : 3,59 Гбайт (91%)
Библиотека кодирования : x264 core 148
Настройки программы : cabac=1 / ref=4 / deblock=1:0:0 / analyse=0x3:0x3 / me=dia / subme=1 / psy=1 / psy_rd=1.00:0.00 / mixed_ref=0 / me_range=16 / chroma_me=1 / trellis=0 / 8x8dct=1 / cqm=1 / deadzone=21,11 / fast_pskip=1 / chroma_qp_offset=0 / threads=22 / lookahead_threads=3 / sliced_threads=0 / slices=1 / nr=0 / decimate=1 / interlaced=0 / minigop=0 / stitchable=1 / constrained_intra=0 / bframes=3 / b_pyramid=0 / b_adapt=0 / b_bias=0 / direct=1 / weightb=1 / open_gop=1 / weightp=0 / keyint=240 / keyint_min=23 / scenecut=40 / intra_refresh=0 / rc_lookahead=0 / rc=cbr / mbtree=0 / bitrate=6400 / ratetol=1.0 / qcomp=0.60 / qpmin=1 / qpmax=69 / qpstep=4 / vbv_maxrate=6400 / vbv_bufsize=6400 / nal_hrd=vbr / filler=0 / ip_ratio=1.40 / pb_ratio=1.30 / aq=1:1.00
Default : Да
Forced : Нет
Цветовой диапазон : Limited
Основные цвета : BT.709
Характеристики трансфера : BT.709
Коэффициенты матрицы : BT.709

Аудио
Идентификатор : 2
Формат : AC-3
Формат/Информация : Audio Coding 3
Расширение режима : CM (complete main)
Параметр Endianness формата : Big
Идентификатор кодека : A_AC3
Продолжительность : 1 ч. 33 м.
Вид битрейта : Постоянный
Битрейт : 448 Кбит/сек
Каналы : 2 канала
Расположение каналов : Front: L R
Частота : 48,0 КГц
Частота кадров : 31,250 кадров/сек (1536 spf)
Метод сжатия : С потерями
Размер потока : 298 Мбайт (7%)
Default : Да
Forced : Нет

pb.wtf



Скачать Смертельная игра через торрент http://img12.lostpic.net/2018/02/10/5d458cdf9f2e43b62d54408f46a2eec6.jpg Скачать фильм Смертельная игра через торрент бесплантно в хорошем качестве Описание: Группа молодых людей просыпаются и обнаруживают себя запертыми на складе. У каждого из них во лбу камера. Вскоре становится ясно, ... 8.3 10 6
Торрент: Зарегистрирован [2018-02-10 17:51] · скачан: 96 раз
Статус: # сомнительно
Размер: 3.96 GB
Как cкачать? Как скачать Смертельная игра через торрент | qTorrent

% Раздел Тема Автор DL S | L
T Фильмы (мультфильмы) cо спонсором показа (Новинки AVI/MKV) [ 1.37 GB ] Смертельная игра / Headgame [2018 HDRip] MVO ["Синема УС] bober100 Скачать
1 | 0

28-11-2019 20:33  

Отключить всю рекламу на сайте

12-02-2018 15:19 Смертельная игра Скачать торрент  

Наснимают же всякий бред pb.wtf



    Дорогой пользователь! Огромная просьба, поблагодарите релизера, оцените раздачу и оставьте свои комментарий, если Вы скачали Смертельная игра через торрент бесплатно! Внесите свою лепту в развитие PiratBit!
    Комментировать посты могут только пользователи прошедшие не сложную регистрацию
    Показать сообщения:    

    Смертельная игра через торрент
    Скачать бесплатно Смертельная игра
    Смертельная игра скачать торрент
    Смертельная игра смотреть онлайн
    Cкачать фильм Смертельная игра бесплатно
    Смертельная игра скачать торрент в хорошем качестве
    Смертельная игра смотреть онлайн бесплатно в хорошем качестве


    Вы не можете начинать темы
    Вы не можете отвечать на сообщения
    Вы не можете редактировать свои сообщения
    Вы не можете удалять свои сообщения
    Вы не можете голосовать в опросах
    Вы не можете прикреплять файлы к сообщениям
    Вы можете скачивать файлы