Ссылка на приватное зеркало всего за 1$. Внимание количество ограничено!!!

OK

1+1

iTunes

мы

OK

1

WEB-DLRip

Джокер

Пифагор

Ведьмак / The Witcher сериал

iTunes

ПШазам

ОК

Оно 2

iTunes

30
pack

Вам бонус

ВАЖНО

!!Акция!!

Alien_RageХит недели

RePack

Resident Evil 21

ИГРА 18+

pack

RePack

jed

RePack

fifa19

RePack

Assassins Creed: Odyssey

RePack

NEED FOR SPEED™ PAYBACK

4 сезон

9 сезон

Бесстыжие 9 сезон

Все сериалы

все сериалы на PB.wtf

RePack

FAR CRY 5
  

Роковая Оборона / Fatal Defense (Джон Марловски) [2017, триллер, WEB-DL 720p] MVO ["Синема УС] pb.wtf

Роковая Оборона через торрент pb.wtf

Размер: 2.93 GB | Добавлен: 1 год 11 мес. назад | Торрент скачан:32 раза
Скачать  

10-02-2018 18:52 Роковая Оборона Скачать торрент  

Роковая Оборона / Fatal DefenseГод выпуска: 2017
Страна: США
Жанр: триллер
Продолжительность: 01:27:07
Перевод: Любительский (многоголосый) ["Синема УС]
Субтитры: отсутствуют

Режиссер: Джон Марловски

rating

В ролях:

Эшли Скотт, Дэвид Кейд, Шерилин Фенн, Лори Фортье, Софи Гест, Шон Ланж, Мэри Маллой

Описание:

Мать-одиночка записывается на курсы самообороны к симпатичному тренеру. Но он становится одержим ей и начинает проводить всё более страшные и опасные проверки, чтобы выяснить, усвоила ли она его уроки.

Качество: WEB-DL 720p
Формат: MKV
Видео кодек: H.264
Аудио кодек: AC3

Видео: 4436 Кбит/с, 1280x720
Аудио#1: AC3, 2 ch, 384 Кбит/с

скриншот  скриншот  скриншот  

Общее
Уникальный идентификатор : 199380395488054568579329063170660305598 (0x95FF447449D9E4AC97926782540B0ABE)
Полное имя : D:\Fatal.Defense.2017.P.WEB-DL.72Op_KOSHARA.mkv
Формат : Matroska
Версия формата : Version 2
Размер файла : 2,93 Гбайт
Продолжительность : 1 ч. 27 м.
Режим общего битрейта : Переменный
Общий поток : 4821 Кбит/сек
Дата кодирования : UTC 2018-02-10 09:26:36
Программа кодирования : mkvmerge v8.3.0 ('Over the Horizon') 64bit
Библиотека кодирования : libebml v1.3.1 + libmatroska v1.4.2

Видео
Идентификатор : 1
Формат : AVC
Формат/Информация : Advanced Video Codec
Профиль формата : High@L4.1
Параметр CABAC формата : Да
Параметр ReFrames формата : 4 кадра
Идентификатор кодека : V_MPEG4/ISO/AVC
Продолжительность : 1 ч. 27 м.
Вид битрейта : Переменный
Битрейт : 4436 Кбит/сек
Максимальный битрейт : 5000 Кбит/сек
Ширина : 1280 пикселей
Высота : 720 пикселей
Соотношение сторон : 16:9
Режим частоты кадров : Постоянный
Частота кадров : 23,976 (24000/1001) кадра/сек
Стандарт вещания : Component
Цветовое пространство : YUV
Субдискретизация насыщенности : 4:2:0
Битовая глубина : 8 бит
Тип развёртки : Прогрессивная
Бит/(Пиксели*Кадры) : 0.196
Размер потока : 2,64 Гбайт (90%)
Default : Да
Forced : Нет
Цветовой диапазон : Limited
Основные цвета : BT.709
Характеристики трансфера : BT.709
Коэффициенты матрицы : BT.709

Аудио
Идентификатор : 2
Формат : AC-3
Формат/Информация : Audio Coding 3
Расширение режима : CM (complete main)
Параметр Endianness формата : Big
Идентификатор кодека : A_AC3
Продолжительность : 1 ч. 27 м.
Вид битрейта : Постоянный
Битрейт : 384 Кбит/сек
Каналы : 2 канала
Расположение каналов : Front: L R
Частота : 48,0 КГц
Частота кадров : 31,250 кадров/сек (1536 spf)
Метод сжатия : С потерями
Размер потока : 239 Мбайт (8%)
Default : Да
Forced : Нет

pb.wtf



Скачать Роковая Оборона через торрент http://img12.lostpic.net/2018/02/10/d10efb046ad5aa8d1c608d3b50668800.jpg Скачать фильм Роковая Оборона через торрент бесплантно в хорошем качестве Описание: Мать-одиночка записывается на курсы самообороны к симпатичному тренеру. Но он становится одержим ей и начинает проводить всё ... 7 10 7
Торрент: Зарегистрирован [2018-02-10 18:52] · скачан: 32 раз
Статус: T временная
Размер: 2.93 GB
Как cкачать? Как скачать Роковая Оборона через торрент | qTorrent

% Раздел Тема Автор DL S | L
T Фильмы (мультфильмы) cо спонсором показа (Новинки AVI/MKV) [ 1.37 GB ] Роковая Оборона / Fatal Defense [2017 WEB-DLRip] MVO ["Синема УС] bober100 Скачать
1 | 0

28-11-2019 20:33  

Отключить всю рекламу на сайте

11-02-2018 05:31 Роковая Оборона Скачать торрент  

как фильм?pb.wtf



    Дорогой пользователь! Огромная просьба, поблагодарите релизера, оцените раздачу и оставьте свои комментарий, если Вы скачали Роковая Оборона через торрент бесплатно! Внесите свою лепту в развитие PiratBit!
    Комментировать посты могут только пользователи прошедшие не сложную регистрацию
    Показать сообщения:    

    Роковая Оборона через торрент
    Скачать бесплатно Роковая Оборона
    Роковая Оборона скачать торрент
    Роковая Оборона смотреть онлайн
    Cкачать фильм Роковая Оборона бесплатно
    Роковая Оборона скачать торрент в хорошем качестве
    Роковая Оборона смотреть онлайн бесплатно в хорошем качестве


    Вы не можете начинать темы
    Вы не можете отвечать на сообщения
    Вы не можете редактировать свои сообщения
    Вы не можете удалять свои сообщения
    Вы не можете голосовать в опросах
    Вы не можете прикреплять файлы к сообщениям
    Вы можете скачивать файлы