Ссылка на приватное зеркало нашего сайта всего за 1$. Внимание количество ограничено!!!

2 сезон

iTunes

1 сезон

1

2 сезон

2 сезон

iTunes

1 сезон

RePack

30

Ultimate

ВАЖНО

ИГРА 18+

pack

RePack

MK11
pack

Забери бонус

RePack

jed

!!Акция!!

Alien_Rage

RePack

fifa19

RePack

Assassins Creed: Odyssey

RePack

NEED FOR SPEED™ PAYBACK

4 сезон

9 сезон

Бесстыжие 9 сезон

Все сериалы

все сериалы на PB.wtf

RePack

FAR CRY 5
  

Скины / Romper Stomper / Сезон 1 / Серии 1-6 из 6 (Дэн Эдвардс, Джон Эдвардс, Джеффри Райт) [2018, Драма, WEBRip] MVO [ColdFilm] pb.wtf

Скины через торрент pb.wtf

Размер: 2.5 GB | Добавлен: 2 года 9 мес. назад | Торрент скачан:29 раз
Скачать  

10-02-2018 19:19 Скины Скачать торрент  

Скины / Romper StomperГод выпуска: 2018
Страна: Австралия
Жанр: Драма
Продолжительность: 6 x ~ 00:54:00
Перевод: Любительский (многоголосый) -
Субтитры: отсутствуют

Режиссер: Дэн Эдвардс, Джон Эдвардс, Джеффри Райт

rating

В ролях:

Тоби Уоллес, Софи Лоу, Лахи Хулме

Описание:

Австралийский телевизионный сериал, продолжение фильма «Romper Stomper» 1992 года, повествующий о событиях, происходящих через 25 лет после времени действия картины. Шесть серий рассказывают о новом поколении крайне-правых активистов и их антифашистских оппонентах, причем, снял их режиссер оригинальной картины — Джеффри Райт и в сериале будут постаревшие герои 1992 года, которых играют те же актеры.

Качество: WEBRip
Формат: AVI
Видео кодек: XviD
Аудио кодек: MP3

Видео: 1100 Кбит/с, 720x360, 29.970 fps
Аудио#1: Русский (MP3, 2 ch, 128 Кбит/с)
скриншот   скриншот   скриншот   скриншот  

Общее
Полное имя : D:\Romper.Stomper.S01.400p.ColdFilm\Romper.Stomper.S01E01.400p.ColdFilm.avi
Формат : AVI
Формат/Информация : Audio Video Interleave
Размер файла : 463 Мбайт
Продолжительность : 54 м. 58 с.
Общий поток : 1178 Кбит/сек
Программа кодирования : Lavf57.40.101

Видео
Идентификатор : 1
Формат : MPEG-4 Visual
Параметр BVOP формата : Нет
Параметр QPel формата : Нет
Параметр GMC формата : Без точки перехода
Параметр матрицы формата : Default (H.263)
Идентификатор кодека : FMP4
Продолжительность : 54 м. 58 с.
Битрейт : 1019 Кбит/сек
Ширина : 720 пикселей
Высота : 360 пикселей
Соотношение сторон : 2,000
Режим частоты кадров : Переменный
Частота кадров : 119,880 (24/30) кадров/сек
Минимальная частота кадров : 23,976 кадра/сек
Максимальная частота кадров : 29,970 кадров/сек
Цветовое пространство : YUV
Субдискретизация насыщенности : 4:2:0
Битовая глубина : 8 бит
Тип развёртки : Прогрессивная
Метод сжатия : С потерями
Бит/(Пиксели*Кадры) : 0.033
Размер потока : 401 Мбайт (86%)
Библиотека кодирования : Lavc57.48.101

Аудио
Идентификатор : 0
Формат : MPEG Audio
Версия формата : Version 1
Профиль формата : Layer 3
Режим : Joint stereo
Расширение режима : MS Stereo
Идентификатор кодека : 55
Идентификатор кодека/Подсказка : MP3
Продолжительность : 54 м. 58 с.
Вид битрейта : Постоянный
Битрейт : 128 Кбит/сек
Каналы : 2 канала
Частота : 48,0 КГц
Метод сжатия : С потерями
Размер потока : 50,3 Мбайт (11%)
Выравнивание : Соединение по промежуткам
Продолжительность промежутка : 8 мс. (1,00 видеокадр)

pb.wtf



Скачать Скины через торрент http://d.radikal.ru/d37/1802/0c/b1756a9d03cd.jpg Скачать фильм Скины через торрент бесплантно в хорошем качестве Описание: Австралийский телевизионный сериал, продолжение фильма «Romper Stomper» 1992 года, повествующий о событиях, происходящих через 25 ... 8 10 5
Торрент: Зарегистрирован [2018-02-10 19:19] · скачан: 29 раз
Статус: √ проверено
Размер: 2.5 GB
Как cкачать? Как скачать Скины через торрент | qTorrent

% Раздел Тема Автор DL S | L
Зарубежные сериалы [ 4.63 GB ] Скины / Romper Stomper / Сезон 1 / Серии 1-6 из 6 [2018 WEBRip 720p] MVO [ColdFilm] bober100 Скачать
1 | 0

28-11-2019 20:33  

Отключить всю рекламу на сайте

    Дорогой пользователь! Огромная просьба, поблагодарите релизера, оцените раздачу и оставьте свои комментарий, если Вы скачали Скины через торрент бесплатно! Внесите свою лепту в развитие PiratBit!
    Комментировать посты могут только пользователи прошедшие не сложную регистрацию
    Показать сообщения:    

    Скины через торрент
    Скачать бесплатно Скины
    Скины скачать торрент
    Скины смотреть онлайн
    Cкачать фильм Скины бесплатно
    Скины скачать торрент в хорошем качестве
    Скины смотреть онлайн бесплатно в хорошем качестве


    Вы не можете начинать темы
    Вы не можете отвечать на сообщения
    Вы не можете редактировать свои сообщения
    Вы не можете удалять свои сообщения
    Вы не можете голосовать в опросах
    Вы не можете прикреплять файлы к сообщениям
    Вы можете скачивать файлы