Ссылка на приватное зеркало всего за 1$. Внимание количество ограничено!!!

OK

1+1

iTunes

мы

OK

1

WEB-DLRip

Джокер

Пифагор

Ведьмак / The Witcher сериал

Лицензия

ПШазам

ОК

Оно 2

iTunes

30
pack

Вам бонус

ВАЖНО

!!Акция!!

Alien_RageХит недели

RePack

Resident Evil 21

ИГРА 18+

pack

RePack

jed

!!Акция!!

Alien_Rage

RePack

fifa19

RePack

Assassins Creed: Odyssey

RePack

NEED FOR SPEED™ PAYBACK

4 сезон

9 сезон

Бесстыжие 9 сезон

Все сериалы

все сериалы на PB.wtf

RePack

FAR CRY 5
  

Убийство священного оленя / The Killing of a Sacred Deer (Йоргос Лантимос) [2017, ужасы, триллер, драма, детектив, BDRip 1080p] MVO [@MUZOBOZ@] pb.wtf

Убийство священного оленя через торрент pb.wtf

Размер: 9.32 GB | Добавлен: 1 год 11 мес. назад | Торрент скачан:95 раз
Скачать  

20-01-2018 08:05 Убийство священного оленя Скачать торрент  

Убийство священного оленя / The Killing of a Sacred DeerГод выпуска: 2017
Страна: Ирландия, США
Жанр: ужасы, триллер, драма, детектив
Продолжительность: 02:01:02
Перевод: Любительский (многоголосый) [@MUZOBOZ@]
Субтитры: отсутствуют

Режиссер: Йоргос Лантимос

rating

В ролях:

Николь Кидман, Колин Фаррелл, Алисия Сильверстоун, Барри Кеоган, Рэффи Кэссиди, Билл Кэмп, Санни Сулджик

Описание:

Талантливый кардиохирург Стивен живет счастливой жизнью с женой Анной и двумя прелестными детьми. Этой семейной идиллии угрожает призрак из прошлого, которое Стивену больше не под силу скрывать.

Качество: BDRip 1080p
Формат: MKV
Видео кодек: H.264
Аудио кодек: AC3

Видео: 10.5 Mb/s, 1920x1040
Аудио#1: Русский, (AC3, 2 ch, 448 Кбит/с)

скриншот  скриншот  скриншот  

Общее
Уникальный идентификатор : 186953755123145925892859344749818963363 (0x8CA5FBC803BC9535A18953004A1E65A3)
Полное имя : D:\The.Killing.Of.A.Sacred.Deer.2017.P.BDRip.1O8Op_KOSHARA.mkv
Формат : Matroska
Версия формата : Version 2
Размер файла : 9,32 Гбайт
Продолжительность : 2 ч. 2 м.
Режим общего битрейта : Переменный
Общий поток : 10,9 Мбит/сек
Дата кодирования : UTC 2018-01-18 22:42:03
Программа кодирования : mkvmerge v8.3.0 ('Over the Horizon') 64bit
Библиотека кодирования : libebml v1.3.1 + libmatroska v1.4.2

Видео
Идентификатор : 1
Формат : AVC
Формат/Информация : Advanced Video Codec
Профиль формата : High@L4.1
Параметр CABAC формата : Да
Параметр ReFrames формата : 4 кадра
Идентификатор кодека : V_MPEG4/ISO/AVC
Продолжительность : 2 ч. 2 м.
Вид битрейта : Переменный
Битрейт : 10,5 Мбит/сек
Максимальный битрейт : 12,3 Мбит/сек
Ширина : 1920 пикселей
Высота : 1040 пикселей
Соотношение сторон : 1,85:1
Режим частоты кадров : Постоянный
Частота кадров : 23,976 (24000/1001) кадра/сек
Стандарт вещания : Component
Цветовое пространство : YUV
Субдискретизация насыщенности : 4:2:0
Битовая глубина : 8 бит
Тип развёртки : Прогрессивная
Бит/(Пиксели*Кадры) : 0.214
Размер потока : 8,75 Гбайт (94%)
Default : Да
Forced : Нет
Цветовой диапазон : Limited
Основные цвета : BT.709
Характеристики трансфера : BT.709
Коэффициенты матрицы : BT.709

Аудио
Идентификатор : 2
Формат : AC-3
Формат/Информация : Audio Coding 3
Расширение режима : CM (complete main)
Параметр Endianness формата : Big
Идентификатор кодека : A_AC3
Продолжительность : 2 ч. 2 м.
Вид битрейта : Постоянный
Битрейт : 448 Кбит/сек
Каналы : 2 канала
Расположение каналов : Front: L R
Частота : 48,0 КГц
Частота кадров : 31,250 кадров/сек (1536 spf)
Метод сжатия : С потерями
Размер потока : 391 Мбайт (4%)
Default : Да
Forced : Нет

pb.wtf



Скачать Убийство священного оленя через торрент http://img12.lostpic.net/2018/01/20/2773f81c54180dd5c045289c2403d83d.jpg Скачать фильм Убийство священного оленя через торрент бесплантно в хорошем качестве Описание: Талантливый кардиохирург Стивен живет счастливой жизнью с женой Анной и двумя прелестными детьми. Этой семейной идиллии угрожает ... 7 10 9
Торрент: Зарегистрирован [2018-02-10 20:39] · скачан: 95 раз
Статус: # сомнительно
Размер: 9.32 GB
Как cкачать? Как скачать Убийство священного оленя через торрент | qTorrent

% Раздел Тема Автор DL S | L
Фильмы 2017 [DVDrip, WEB-DLRip, HDrip] (DUB, MVO) [ 2.18 GB ] Убийство священного оленя / The Killing of a Sacred Deer [2017 BDRip] MVO [Jaskier] Леонид Ильич Скачать
1 | 0
Фильмы [HD 720p, 1080p] (Хороший звук DUB, MVO) [ 11.5 GB ] Убийство священного оленя / The Killing of a Sacred Deer [2017 BDRip 720p от TeamHD & NNNB] MVO + AVO + Original + Sub _denis_100 Скачать
1 | 0
Фильмы с авторской озвучкой [ 1.46 GB ] Убийство священного оленя / The Killing of a Sacred Deer [2017 WEB-DLRip] AVO [BadBajo] - ExKinoRay Enigma2010 Скачать
2 | 0
T Фильмы 2017 [DVDrip, WEB-DLRip, HDrip] (DUB, MVO) [ 1.78 GB ] Убийство священного оленя / The Killing of a Sacred Deer [2017 HDRip] MVO AVO [BadBajo] - ExKinoRay Enigma2010 Скачать
2 | 0
# Фильмы (мультфильмы) cо спонсором показа (Новинки AVI/MKV) [ 5.16 GB ] Убийство священного оленя / The Killing of a Sacred Deer [2017 BDRip 720p] MVO [@MUZOBOZ@] bober100 Скачать
1 | 1
T Фильмы (Blu-ray, BD-Remux, HDDVD) [ 34.34 GB ] Убийство священного оленя / The Killing of a Sacred Deer [2017 BD Remux 1080p] MVO [Студия "Paradox" & Omskbird records] +AVO [BadBajo] bober100 Скачать
1 | 0
T Фильмы [HD 720p, 1080p] (Хороший звук DUB, MVO) [ 10.32 GB ] Убийство священного оленя / The Killing of a Sacred Deer [2017 BDRip 1080p] MVO [Студия "Paradox" & Omskbird records] +AVO [BadBajo] bober100 Скачать
1 | 0

28-11-2019 20:33  

Отключить всю рекламу на сайте

20-01-2018 08:17 Убийство священного оленя Скачать торрент  

на кой этот шлаковоз если есть уже норм без рекламы многоголоска и одноголоскаpb.wtf



20-01-2018 12:42 Убийство священного оленя Скачать торрент  

Перевод: Любительский (многоголосый)pb.wtf



10-02-2018 20:57 Убийство священного оленя Скачать торрент  

фильм бред и трата времениpb.wtf



11-02-2018 03:58 Убийство священного оленя Скачать торрент  

к просмотру не советую, фильм Кто убил капитана Алекса и то лучше, чем это уг.pb.wtf



    Дорогой пользователь! Огромная просьба, поблагодарите релизера, оцените раздачу и оставьте свои комментарий, если Вы скачали Убийство священного оленя через торрент бесплатно! Внесите свою лепту в развитие PiratBit!
    Комментировать посты могут только пользователи прошедшие не сложную регистрацию
    Показать сообщения:    

    Убийство священного оленя через торрент
    Скачать бесплатно Убийство священного оленя
    Убийство священного оленя скачать торрент
    Убийство священного оленя смотреть онлайн
    Cкачать фильм Убийство священного оленя бесплатно
    Убийство священного оленя скачать торрент в хорошем качестве
    Убийство священного оленя смотреть онлайн бесплатно в хорошем качестве


    Вы не можете начинать темы
    Вы не можете отвечать на сообщения
    Вы не можете редактировать свои сообщения
    Вы не можете удалять свои сообщения
    Вы не можете голосовать в опросах
    Вы не можете прикреплять файлы к сообщениям
    Вы можете скачивать файлы