Ссылка на приватное зеркало всего за 1$. Внимание количество ограничено!!!

OK

1+1

iTunes

мы

OK

1

WEB-DLRip

Джокер

Пифагор

Ведьмак / The Witcher сериал

Лицензия

ПШазам

ОК

Оно 2

iTunes

30
pack

Вам бонус

ВАЖНО

!!Акция!!

Alien_RageХит недели

RePack

Resident Evil 21

ИГРА 18+

pack

RePack

jed

RePack

fifa19

RePack

Assassins Creed: Odyssey

RePack

NEED FOR SPEED™ PAYBACK

4 сезон

9 сезон

Бесстыжие 9 сезон

Все сериалы

все сериалы на PB.wtf

RePack

FAR CRY 5
  

Сырое / Raw (Джулия Дюкорно) [2016, ужасы, драма, BDRip 720p] DUB [Line] pb.wtf

Сырое через торрент pb.wtf

Размер: 4.59 GB | Добавлен: 1 год 11 мес. назад | Торрент скачан:106 раз
Скачать  

10-02-2018 22:06 Сырое Скачать торрент  

Сырое / RawГод выпуска: 2016
Страна: Франция, Бельгия, Италия
Жанр: ужасы, драма
Продолжительность: 01:39:30
Перевод: Дубляж - [Line]
Субтитры: отсутствуют

Режиссер: Джулия Дюкорно

rating

В ролях:

Геренс Марилье, Элла Рамф, Рабах Наит Уфелла, Лоран Люка, Джоана Прейсс, Були Ланнерс, Марион Верну, Томас Мустин, Жан-Луи Сбий

Описание:

В одной ветеринарной школе есть традиция - проводить ритуал поедания сырого мяса. Молодая вегетарианка, пересилив себя, проходит это испытание и понимает, что не может сопротивляться растущему желанию есть сырое мясо.

Качество: BDRip 720p
Формат: MKV

Видео: 6154 kb/s, 1280x536
Аудио#1: AC3, 2 ch, 448 kbps




скриншот  скриншот  скриншот  

Общее
Уникальный идентификатор : 225094000901520322583995344670679669403 (0xA9578714F9D35817B196A6801EEC9A9B)
Полное имя : D:\VkusivShfya.Plot.2O16.D.BDRip.72Op_KOSHARA.mkv
Формат : Matroska
Версия формата : Version 2
Размер файла : 4,59 Гбайт
Продолжительность : 1 ч. 39 м.
Режим общего битрейта : Переменный
Общий поток : 6604 Кбит/сек
Дата кодирования : UTC 2018-02-10 12:44:06
Программа кодирования : mkvmerge v8.3.0 ('Over the Horizon') 64bit
Библиотека кодирования : libebml v1.3.1 + libmatroska v1.4.2

Видео
Идентификатор : 1
Формат : AVC
Формат/Информация : Advanced Video Codec
Профиль формата : High@L4.1
Параметр CABAC формата : Да
Параметр ReFrames формата : 4 кадра
Идентификатор кодека : V_MPEG4/ISO/AVC
Продолжительность : 1 ч. 39 м.
Вид битрейта : Переменный
Битрейт : 6154 Кбит/сек
Максимальный битрейт : 6800 Кбит/сек
Ширина : 1280 пикселей
Высота : 536 пикселей
Соотношение сторон : 2,40:1
Режим частоты кадров : Постоянный
Частота кадров : 23,976 (24000/1001) кадра/сек
Стандарт вещания : Component
Цветовое пространство : YUV
Субдискретизация насыщенности : 4:2:0
Битовая глубина : 8 бит
Тип развёртки : Прогрессивная
Бит/(Пиксели*Кадры) : 0.366
Размер потока : 4,19 Гбайт (91%)
Default : Да
Forced : Нет
Цветовой диапазон : Limited
Основные цвета : BT.709
Характеристики трансфера : BT.709
Коэффициенты матрицы : BT.709

Аудио
Идентификатор : 2
Формат : AC-3
Формат/Информация : Audio Coding 3
Расширение режима : CM (complete main)
Параметр Endianness формата : Big
Идентификатор кодека : A_AC3
Продолжительность : 1 ч. 39 м.
Вид битрейта : Постоянный
Битрейт : 448 Кбит/сек
Каналы : 2 канала
Расположение каналов : Front: L R
Частота : 48,0 КГц
Частота кадров : 31,250 кадров/сек (1536 spf)
Метод сжатия : С потерями
Размер потока : 319 Мбайт (7%)
Default : Да
Forced : Нет

pb.wtf



Скачать Сырое через торрент http://img12.lostpic.net/2018/02/11/80076c3e9d0b1fd7d1f16a9a67d95ee7.jpg Скачать фильм Сырое через торрент бесплантно в хорошем качестве Описание: В одной ветеринарной школе есть традиция - проводить ритуал поедания сырого мяса. Молодая вегетарианка, пересилив себя, проходит ... 8.7 10 7
Торрент: Зарегистрирован [2018-02-10 22:06] · скачан: 106 раз
Статус: # сомнительно
Размер: 4.59 GB
Как cкачать? Как скачать Сырое через торрент | qTorrent

% Раздел Тема Автор DL S | L
Гонзо [ 2.46 GB ] Сырые Булочки 9 / Tushy Raw V9 [2019 All Sex Anal Oral Gonzo Facial Couples WEB-DLRip] sheker187 Скачать
5 | 0
Гонзо [ 2.41 GB ] Сырые Булочки 8 / Tushy Raw V8 [2019 All Sex Anal Oral Gonzo Big Butt Big Cocks WEB-DLRip] sheker187 Скачать
4 | 0
Гонзо [ 1.04 GB ] Tushy Raw V5 / Сырые Булочки V5 [2019 Anal Big Butt Made For Women DVDRip] Venom Скачать
1 | 1
Гонзо [ 2.34 GB ] Tushy Raw V7 / Сырые Булочки 7 [2019 All Sex Anal WEB-DL] Pir@tya2010 Скачать
2 | 0
Гонзо [ 2.38 GB ] Tushy Raw 6 / Сырые Булочки 6 [2019 All Sex Anal Big Butt WEB-DL] Venom Скачать
2 | 0
Анальный секс [ 1.11 GB ] Сырые Булочки V4 / Tushy Raw V4 [2019 Anal Big Butt Made For Women DVDRip] Venom Скачать
2 | 0
Порно фильмы без сюжета [ 2.23 GB ] Сырые Булочки 5 / Tushy Raw 5 [2019 All Sex Anal Big Butt WEB-DL] bashai5 Скачать
1 | 0

28-11-2019 20:33  

Отключить всю рекламу на сайте

11-02-2018 15:16 Сырое Скачать торрент  

ожидал чего-то интересного.мутотень еще та.осилил с большим трудом.pb.wtf



11-02-2018 15:35 Сырое Скачать торрент  

+1 , отвратный кинчигpb.wtf



    Дорогой пользователь! Огромная просьба, поблагодарите релизера, оцените раздачу и оставьте свои комментарий, если Вы скачали Сырое через торрент бесплатно! Внесите свою лепту в развитие PiratBit!
    Комментировать посты могут только пользователи прошедшие не сложную регистрацию
    Показать сообщения:    

    Сырое через торрент
    Скачать бесплатно Сырое
    Сырое скачать торрент
    Сырое смотреть онлайн
    Cкачать фильм Сырое бесплатно
    Сырое скачать торрент в хорошем качестве
    Сырое смотреть онлайн бесплатно в хорошем качестве


    Вы не можете начинать темы
    Вы не можете отвечать на сообщения
    Вы не можете редактировать свои сообщения
    Вы не можете удалять свои сообщения
    Вы не можете голосовать в опросах
    Вы не можете прикреплять файлы к сообщениям
    Вы можете скачивать файлы