Ссылка на приватное зеркало нашего сайта всего за 1$. Внимание количество ограничено!!!

2 сезон

iTunes

1 сезон

1

2 сезон

2 сезон

iTunes

1 сезон

RePack

30

Новинка

ВАЖНО

ИГРА 18+

pack

RePack

MK11
pack

Забери бонус

RePack

jed

!!Акция!!

Alien_Rage

RePack

fifa19

RePack

Assassins Creed: Odyssey

RePack

NEED FOR SPEED™ PAYBACK

4 сезон

9 сезон

Бесстыжие 9 сезон

Все сериалы

все сериалы на PB.wtf

RePack

FAR CRY 5
  

Восставший из ада 10: Приговор / Hellraiser: Judgment (Гэри Дж. Танниклифф) [2018, ужасы, BDRip (720p)] DVO [HiWay Grope] pb.wtf

Восставший из ада 10: Приговор через торрент pb.wtf

Размер: 3.5 GB | Добавлен: 2 года 9 мес. назад | Торрент скачан:169 раз
Скачать  

10-02-2018 22:11 Восставший из ада 10: Приговор Скачать торрент  

Восставший из ада 10: Приговор / Hellraiser: Judgment
««Зло ищет зло»»


Год выпуска: 2018
Страна: США
Жанр: ужасы

Продолжительность: 01:21:10
Перевод: Любительский [двухголосый] [HiWay Grope]
Субтитры: Английские
Режиссер: Гэри Дж. Танниклифф
В ролях:

Рэнди Уэйн (Detective David Carter), Хэзер Лэнгенкэмп (Landlady), Риган Уоллес (Alison Carter), Алексис Харрис (Detective Christine Egerton), Джон Гулагер (The Assessor), Пол Т. Тейлор (Pinhead), Майк Дж. Риган (The Chatterer), Дэймон Карни (Sean Carter), Молли Никки Андерсон (Witchy spit collector), Мэри Кэтрин Брайант (Jury), Хелена Грэйс Дональд (Jophiel), Грэйс Монти (Crystal Lanning)
Описание:
Детективы Шон и Дэвид Картеры расследует дело о жутких серийных убийствах. Объединив усилия с другим детективом, Кристин Эджертон, они следуют за убийцей всё дальше и дальше в лабиринт ужаса, которому нет места в мире живых. Чем глубже они опускаются по спирали в преисподнюю, тем явственнее понимают, что они клюнули не на ту наживку. Похоже, сенобиты ждут вовсе не жертв маньяка.
Мировая премьера: 13 февраля 2018

rating
Релиз от:

Качество: BDRip (720p)
Формат: MKW
Видео кодек: AVC
Аудио кодек: AC3, DTS
Видео: AVC;1280x720 (16:9);4269 Kbps;23,976 fps;0,193 bpp
Аудио №1: AC3;384 Kbps;CBR;2 ch Русский
Аудио №2: DTS;1509 Kbps;CBR;6 ch;24 bit Английский

Общее
Уникальный идентификатор : 325232932389648989845152281450350052361 (0xF4AD95973DC74949683396D5BF330409)
Полное имя : D:\video\Раздачи\Hellraiser.Judgment.2018.BDRip720p.Kinozal-Reliz.by WSM\Hellraiser.Judgment.2018.BDRip720p.Kinozal-Reliz.by WSM.mkv
Формат : Matroska
Версия формата : Version 4 / Version 2
Размер файла : 3,49 Гбайт
Продолжительность : 1 ч. 21 м.
Общий поток : 6164 Кбит/сек
Дата кодирования : UTC 2018-02-16 09:44:06
Программа кодирования : mkvmerge v20.0.0 ('I Am The Sun') 64-bit
Библиотека кодирования : libebml v1.3.5 + libmatroska v1.4.8

Видео
Идентификатор : 1
Формат : AVC
Формат/Информация : Advanced Video Codec
Профиль формата : High@L4.1
Настройки формата : CABAC / 5 Ref Frames
Параметр CABAC формата : Да
Параметр RefFrames формата : 5 кадров
Идентификатор кодека : V_MPEG4/ISO/AVC
Продолжительность : 1 ч. 21 м.
Битрейт : 4269 Кбит/сек
Ширина : 1280 пикселей
Высота : 720 пикселей
Соотношение сторон : 16:9
Режим частоты кадров : Постоянный
Частота кадров : 23,976 (24000/1001) кадра/сек
Цветовое пространство : YUV
Субдискретизация насыщенности : 4:2:0
Битовая глубина : 8 бит
Тип развёртки : Прогрессивная
Бит/(Пиксели*Кадры) : 0.193
Размер потока : 2,42 Гбайт (69%)
Библиотека кодирования : x264 core 155 r2901 7d0ff22
Настройки программы : cabac=1 / ref=5 / deblock=1:-3:-3 / analyse=0x3:0x113 / me=umh / subme=8 / psy=1 / psy_rd=1.00:0.00 / mixed_ref=1 / me_range=24 / chroma_me=1 / trellis=1 / 8x8dct=1 / cqm=0 / deadzone=21,11 / fast_pskip=1 / chroma_qp_offset=-2 / threads=22 / lookahead_threads=3 / sliced_threads=0 / nr=0 / decimate=1 / interlaced=0 / bluray_compat=0 / constrained_intra=0 / bframes=3 / b_pyramid=2 / b_adapt=2 / b_bias=0 / direct=3 / weightb=1 / open_gop=0 / weightp=2 / keyint=240 / keyint_min=24 / scenecut=40 / intra_refresh=0 / rc_lookahead=50 / rc=2pass / mbtree=1 / bitrate=4269 / ratetol=1.0 / qcomp=0.60 / qpmin=0 / qpmax=69 / qpstep=4 / cplxblur=20.0 / qblur=0.5 / ip_ratio=1.40 / aq=3:0.80
Default : Да
Forced : Нет

Аудио #1
Идентификатор : 2
Формат : AC-3
Формат/Информация : Audio Coding 3
Идентификатор кодека : A_AC3
Продолжительность : 1 ч. 21 м.
Вид битрейта : Постоянный
Битрейт : 384 Кбит/сек
Каналы : 2 канала
Расположение каналов : Front: L R
Частота : 48,0 КГц
Частота кадров : 31,250 кадров/сек (1536 SPF)
Битовая глубина : 16 бит
Метод сжатия : С потерями
Размер потока : 223 Мбайт (6%)
Язык : Russian
ServiceKind/String : Complete Main
Default : Да
Forced : Да

Аудио #2
Идентификатор : 3
Формат : DTS
Формат/Информация : Digital Theater Systems
Идентификатор кодека : A_DTS
Продолжительность : 1 ч. 21 м.
Вид битрейта : Постоянный
Битрейт : 1509 Кбит/сек
Каналы : 6 каналов
Расположение каналов : Front: L C R, Side: L R, LFE
Частота : 48,0 КГц
Частота кадров : 93,750 кадра/сек (512 SPF)
Битовая глубина : 24 бит
Метод сжатия : С потерями
Размер потока : 876 Мбайт (24%)
Язык : English
Default : Нет
Forced : Нет

Текст #1
Идентификатор : 4
Формат : UTF-8
Идентификатор кодека : S_TEXT/UTF8
Идентификатор кодека/Информация : UTF-8 Plain Text
Продолжительность : 1 ч. 20 м.
Битрейт : 46 бит/сек
ElementCount : 992
Размер потока : 27,3 Кбайт (0%)
Язык : English
Default : Нет
Forced : Нет

Текст #2
Идентификатор : 5
Формат : UTF-8
Идентификатор кодека : S_TEXT/UTF8
Идентификатор кодека/Информация : UTF-8 Plain Text
Продолжительность : 1 ч. 20 м.
Битрейт : 50 бит/сек
ElementCount : 1104
Размер потока : 30,0 Кбайт (0%)
Заголовок : SDH
Язык : English
Default : Нет
Forced : Нет

Меню
00:00:00.000 : en:00:00:00.000
00:05:49.558 : en:00:05:49.558
00:12:04.766 : en:00:12:04.766
00:15:52.743 : en:00:15:52.743
00:21:34.877 : en:00:21:34.877
00:26:13.572 : en:00:26:13.572
00:31:02.069 : en:00:31:02.069
00:35:51.232 : en:00:35:51.232
00:41:51.300 : en:00:41:51.300
00:48:38.833 : en:00:48:38.833
00:53:17.611 : en:00:53:17.611
00:58:53.155 : en:00:58:53.155
01:02:25.158 : en:01:02:25.158
01:06:47.670 : en:01:06:47.670
01:12:42.900 : en:01:12:42.900
01:17:07.832 : en:01:17:07.832
скриншот   скриншот  

скриншот   скриншот  

скриншот   скриншот  
pb.wtf



Скачать Восставший из ада 10: Приговор через торрент https://c.radikal.ru/c31/1802/ec/08bc81da4114.png Скачать фильм Восставший из ада 10: Приговор через торрент бесплантно в хорошем качестве Описание: Детективы Шон и Дэвид Картеры расследует дело о жутких серийных убийствах. Объединив усилия с другим детективом, Кристин ... 8.8 10 26
Info! Золотая раздача, скачанное не засчитывается.
Торрент: Зарегистрирован [2018-02-16 10:34] · скачан: 169 раз
Статус: T временная
Размер: 3.5 GB
Как cкачать? Как скачать Восставший из ада 10: Приговор через торрент | qTorrent

% Раздел Тема Автор DL S | L
T Фильмы 2018 [DVDrip, WEB-DLRip, HDrip] (DUB, MVO) [ 1.84 GB ] Восставший из ада 10: Приговор / Hellraiser: Judgment [2018 BDRip-AVC] MVO DVO - ExKinoRay Enigma2010 Скачать
2 | 0


Последний раз редактировалось: WorldSM (2018-02-16 10:34), всего редактировалось 2 раз(а)

28-11-2019 20:33  

Отключить всю рекламу на сайте

10-02-2018 22:30 Восставший из ада 10: Приговор Скачать торрент  

Топик был перенесен из форума Фильмы 2018 [DVDrip, WEB-DLRip, HDrip] (DUB, MVO) в форум Фильмы 2018 (Звук TS, Cam, VO, DVO)


bober100pb.wtf



11-02-2018 08:49 Восставший из ада 10: Приговор Скачать торрент  

Очень слабый фильм. Местами просто противный, нежели страшный.pb.wtf



11-02-2018 10:35 Восставший из ада 10: Приговор Скачать торрент  

без дага бредли это не тот пинхед((противное-тока блевотина,очень слабо снят,франшизе-конецpb.wtf



11-02-2018 16:12 Восставший из ада 10: Приговор Скачать торрент  

вот я думаю как же он сам боится <удалено> , или гвозди резиновые.pb.wtf



13-02-2018 11:25 Восставший из ада 10: Приговор Скачать торрент  

вот это дерьмище! изовсех сил старались, ничего не вышло. убогие потуги сделать что-то оригинально страшно-мерзкое, выглядят нелепо. А хрень с ангелом вообще убила, тупее бреда не видал.pb.wtf



16-02-2018 10:35 Восставший из ада 10: Приговор Скачать торрент  

DVDRip замена на BDRip 720

Субтитры: Английские. Как встроенные так и отдельно.pb.wtf



16-02-2018 10:42 Восставший из ада 10: Приговор Скачать торрент  

Топик был перенесен из форума Фильмы 2018 (Звук TS, Cam, VO, DVO) в форум Фильмы [HD 720p, 1080p] (Звук Cam, VO, DVO)


-Lexx-pb.wtf



17-02-2018 05:25 Восставший из ада 10: Приговор Скачать торрент  

Довольно слабая картина...реанимировать серию не получилось... поначалу очень мерзкий фильм, но ни капли не страшно. Вспоминаю какая была топовая и жуткая первая часть. Эта дешевая подделка и рядом не валяется...pb.wtf



    Дорогой пользователь! Огромная просьба, поблагодарите релизера, оцените раздачу и оставьте свои комментарий, если Вы скачали Восставший из ада 10: Приговор через торрент бесплатно! Внесите свою лепту в развитие PiratBit!
    Комментировать посты могут только пользователи прошедшие не сложную регистрацию
    Показать сообщения:    

    Восставший из ада 10: Приговор через торрент
    Скачать бесплатно Восставший из ада 10: Приговор
    Восставший из ада 10: Приговор скачать торрент
    Восставший из ада 10: Приговор смотреть онлайн
    Cкачать фильм Восставший из ада 10: Приговор бесплатно
    Восставший из ада 10: Приговор скачать торрент в хорошем качестве
    Восставший из ада 10: Приговор смотреть онлайн бесплатно в хорошем качестве


    Вы не можете начинать темы
    Вы не можете отвечать на сообщения
    Вы не можете редактировать свои сообщения
    Вы не можете удалять свои сообщения
    Вы не можете голосовать в опросах
    Вы не можете прикреплять файлы к сообщениям
    Вы можете скачивать файлы