Доктор Стрэндж

Лицензия

Добыча

Дубляж

Уэнсдэй

1 сезон

Тор

Дубляж

В эфире

Дубляж

Там, где раки поют

MVO

Властелин колец

1 сезон

Deluxe

pack

Рекомендуем

30

Пиратка

ВАЖНО

ВАЖНО

Ghostwire

Пиратка

jed

RePack

nioh2

RePack

RDR2

RePack

NEED FOR SPEED™ PAYBACK

RePack

скачать торрент

Кинопоиск HD

Острые козырьки 6 сезон

6 сезон

FAR CRY 6

RePack

скачать торрент

Лицензия

скачать торрент

MVO

1

1 сезон

скачать торрент

1 сезон

скачать торрент

Лицензия

  

Иллюзия полёта / Flightplan (Роберт Швентке) [2005, триллер, драма, детектив, BDRip 1080p ] Дубляж, MVO, 2 x DVO

Иллюзия полёта через торрент pb.wtf

Размер: 11.32 GB | Добавлен: 4 года 9 мес. назад | Торрент скачан:179 раз
Смотреть онлайн | Скачать   

11-02-2018 07:32 Иллюзия полёта Скачать торрент  

Название: Иллюзия полёта
Оригинальное название: Flightplan
Год выпуска: 2005
Страна: США
Жанр: триллер, драма, детектив
Продолжительность: 01:38:02
Перевод: дублированный, профессиональный многоголосый, профессиональный двухголосый

Режиссер: Роберт Швентке
В ролях: Джоди Фостер, Питер Сарсгаард, Шон Бин, Кейт Бихан, Майкл Ирби, Ассаф Коэн, Эрика Кристенсен, Шейн Эдельман, Мэри Галлахер, Хейли Рэмм

Описание: Во время авиарейса Берлин - Нью-Йорк, выполняемого сверхсовременным «Боингом-747», у Кайл Пратт неожиданно бесследно пропадает 6-летняя дочь Джулия. Переживая эмоциональный стресс после безвременной кончины мужа, Кайл отчаянно пытается доказать свою вменяемость не верящим ей членам экипажа и пассажирам. Однако ситуация выглядит настолько абсурдной и фантастичной, что она уже сама начинает сомневаться в адекватности своего восприятия реальности. К тому же, факты свидетельствуют о том, что Джулии вообще не было на борту самолёта. Понимая, что разгадывать эту тайну и спасать свою дочь ей придется в одиночку, Кайл решает целиком и полностью положиться на свой ум и смекалку...



Качество: BDRip 1080p
Формат: MKV
Видео: MPEG-4 AVC, 12.2 Мбит/с/с, 1920x816
Аудио 1: русский, AC3, 384 kbps, 6 ch, 48 kHz [дублированный, R5]
Аудио 2: русский, AC3, 448 kbps, 6 ch, 48 kHz [закадровый многоголосый]
Аудио 3: русский, DTS, 1509 kbps, 6 ch, 48 kHz [закадровый двухголосый, Пётр Гланц и Инна Королёва]
Аудио 4: русский, AC3, 448 kbps, 6 ch, 48 kHz [закадровый двухголосый, Tycoon]
Аудио 5: английский, DTS, 1509 kbps, 6 ch, 48 kHz [оригинал]
Субтитры 1: русские
Субтитры 2: английские
Английские хардсабы на неанглийскую речь
Неименованные главы/чаптеры.
Общее
Уникальный идентификатор : 213481437720591352623506695883335155574 (0xA09B07835493C87F85D8FF5B8EB43F76)
Полное имя : D:\Video\Иллюзия полёта.2005.BDRip.1080p by msltel.mkv
Формат : Matroska
Версия формата : Version 4 / Version 2
Размер файла : 11,3 Гбайт
Продолжительность : 1 ч. 38 м.
Общий поток : 16,5 Мбит/сек
Название фильма : Rip by msltel
Дата кодирования : UTC 2018-02-11 05:53:07
Программа кодирования : mkvmerge v8.2.0 ('World of Adventure') 64bit
Библиотека кодирования : libebml v1.3.1 + libmatroska v1.4.2

Видео
Идентификатор : 1
Формат : AVC
Формат/Информация : Advanced Video Codec
Профиль формата : [email protected]
Настройки формата : CABAC / 4 Ref Frames
Параметр CABAC формата : Да
Параметр RefFrames формата : 4 кадра
Идентификатор кодека : V_MPEG4/ISO/AVC
Продолжительность : 1 ч. 38 м.
Битрейт : 12,2 Мбит/сек
Ширина : 1920 пикселей
Высота : 816 пикселей
Соотношение сторон : 2,35:1
Режим частоты кадров : Постоянный
Частота кадров : 23,976 (24000/1001) кадра/сек
Цветовое пространство : YUV
Субдискретизация насыщенности : 4:2:0
Битовая глубина : 8 бит
Тип развёртки : Прогрессивная
Бит/(Пиксели*Кадры) : 0.326
Размер потока : 8,38 Гбайт (74%)
Библиотека кодирования : x264 core 146 r2538 121396c
Настройки программы : cabac=1 / ref=4 / deblock=1:-3:-2 / analyse=0x3:0x113 / me=umh / subme=11 / psy=1 / psy_rd=1.00:0.15 / mixed_ref=1 / me_range=32 / chroma_me=1 / trellis=2 / 8x8dct=1 / cqm=0 / deadzone=21,11 / fast_pskip=0 / chroma_qp_offset=-3 / threads=6 / lookahead_threads=1 / sliced_threads=0 / nr=0 / decimate=1 / interlaced=0 / bluray_compat=0 / constrained_intra=0 / bframes=7 / b_pyramid=2 / b_adapt=2 / b_bias=0 / direct=1 / weightb=1 / open_gop=0 / weightp=2 / keyint=230 / keyint_min=23 / scenecut=40 / intra_refresh=0 / rc_lookahead=40 / rc=crf / mbtree=0 / crf=17.6 / qcomp=0.60 / qpmin=0 / qpmax=69 / qpstep=4 / vbv_maxrate=62500 / vbv_bufsize=78125 / crf_max=0.0 / nal_hrd=none / filler=0 / ip_ratio=1.40 / pb_ratio=1.30 / aq=1:1.00
Язык : English
Default : Да
Forced : Нет

Аудио #1
Идентификатор : 2
Формат : AC-3
Формат/Информация : Audio Coding 3
Идентификатор кодека : A_AC3
Продолжительность : 1 ч. 38 м.
Вид битрейта : Постоянный
Битрейт : 384 Кбит/сек
Каналы : 6 каналов
Расположение каналов : Front: L C R, Side: L R, LFE
Частота : 48,0 КГц
Частота кадров : 31,250 кадров/сек (1536 SPF)
Битовая глубина : 16 бит
Метод сжатия : С потерями
Размер потока : 269 Мбайт (2%)
Заголовок : Дубляж R5
Язык : Russian
ServiceKind/String : Complete Main
Default : Да
Forced : Нет

Аудио #2
Идентификатор : 3
Формат : AC-3
Формат/Информация : Audio Coding 3
Идентификатор кодека : A_AC3
Продолжительность : 1 ч. 38 м.
Вид битрейта : Постоянный
Битрейт : 448 Кбит/сек
Каналы : 6 каналов
Расположение каналов : Front: L C R, Side: L R, LFE
Частота : 48,0 КГц
Частота кадров : 31,250 кадров/сек (1536 SPF)
Битовая глубина : 16 бит
Метод сжатия : С потерями
Размер потока : 314 Мбайт (3%)
Заголовок : MVO
Язык : Russian
ServiceKind/String : Complete Main
Default : Нет
Forced : Нет

Аудио #3
Идентификатор : 4
Формат : DTS
Формат/Информация : Digital Theater Systems
Идентификатор кодека : A_DTS
Продолжительность : 1 ч. 38 м.
Вид битрейта : Постоянный
Битрейт : 1509 Кбит/сек
Каналы : 6 каналов
Расположение каналов : Front: L C R, Side: L R, LFE
Частота : 48,0 КГц
Частота кадров : 93,750 кадра/сек (512 SPF)
Битовая глубина : 16 бит
Метод сжатия : С потерями
Размер потока : 1,03 Гбайт (9%)
Заголовок : Пётр Гланц и Инна Королёва
Язык : Russian
Default : Нет
Forced : Нет

Аудио #4
Идентификатор : 5
Формат : AC-3
Формат/Информация : Audio Coding 3
Идентификатор кодека : A_AC3
Продолжительность : 1 ч. 38 м.
Вид битрейта : Постоянный
Битрейт : 448 Кбит/сек
Каналы : 6 каналов
Расположение каналов : Front: L C R, Side: L R, LFE
Частота : 48,0 КГц
Частота кадров : 31,250 кадров/сек (1536 SPF)
Битовая глубина : 16 бит
Метод сжатия : С потерями
Размер потока : 314 Мбайт (3%)
Заголовок : DVO Tycoon
Язык : Russian
ServiceKind/String : Complete Main
Default : Нет
Forced : Нет

Аудио #5
Идентификатор : 6
Формат : DTS
Формат/Информация : Digital Theater Systems
Идентификатор кодека : A_DTS
Продолжительность : 1 ч. 38 м.
Вид битрейта : Постоянный
Битрейт : 1509 Кбит/сек
Каналы : 6 каналов
Расположение каналов : Front: L C R, Side: L R, LFE
Частота : 48,0 КГц
Частота кадров : 93,750 кадра/сек (512 SPF)
Битовая глубина : 16 бит
Метод сжатия : С потерями
Размер потока : 1,03 Гбайт (9%)
Заголовок : original
Язык : English
Default : Нет
Forced : Нет

Текст #1
Идентификатор : 7
Формат : UTF-8
Идентификатор кодека : S_TEXT/UTF8
Идентификатор кодека/Информация : UTF-8 Plain Text
Продолжительность : 1 ч. 30 м.
Битрейт : 59 бит/сек
ElementCount : 786
Размер потока : 39,4 Кбайт (0%)
Заголовок : русские
Язык : Russian
Default : Нет
Forced : Нет

Текст #2
Идентификатор : 8
Формат : UTF-8
Идентификатор кодека : S_TEXT/UTF8
Идентификатор кодека/Информация : UTF-8 Plain Text
Продолжительность : 1 ч. 29 м.
Битрейт : 41 бит/сек
ElementCount : 771
Размер потока : 27,3 Кбайт (0%)
Заголовок : английские
Язык : English
Default : Нет
Forced : Нет

Меню
00:00:00.000 : :Chapter 01
00:04:45.326 : :Chapter 02
00:11:05.664 : :Chapter 03
00:17:55.324 : :Chapter 04
00:26:53.068 : :Chapter 05
00:34:03.040 : :Chapter 06
00:40:44.983 : :Chapter 07
00:48:49.509 : :Chapter 08
00:54:56.876 : :Chapter 09
01:03:27.969 : :Chapter 10
01:11:51.724 : :Chapter 11
01:18:21.070 : :Chapter 12
01:28:44.027 : :Chapter 13
01:31:39.408 : :Chapter 14
01:38:02.667 : :Chapter 15



Скачать Иллюзия полёта через торрент https://d.radikal.ru/d43/1802/82/71ac2f26cab5.jpg Скачать, смотреть онлайн Иллюзия полёта бесплантно в хорошем качестве Описание: Во время авиарейса Берлин - Нью-Йорк, выполняемого сверхсовременным «Боингом-747», у Кайл Пратт неожиданно бесследно пропадает ... 10 10 4
Info! Золотая раздача, скачанное не засчитывается.
Торрент: Зарегистрирован [2018-02-11 07:32] · скачан: 179 раз
Статус: √ проверено
Размер: 11.32 GB
Как cкачать? Как скачать Иллюзия полёта через торрент | UTorrent

28-11-2019 20:33  


Отключить вcю реклaмy на сайте, в т.ч. и в плеере онлайн просмотра!

    Дорогой пользователь! Огромная просьба, поблагодарите релизера, оцените раздачу и оставьте свои комментарий, если Вы скачали Иллюзия полёта через торрент бесплатно!!
    Комментировать посты могут только пользователи прошедшие не сложную регистрацию
    Показать сообщения:    


    Иллюзия полёта через торрент
    Скачать бесплатно Иллюзия полёта
    Иллюзия полёта скачать торрент
    Иллюзия полёта смотреть онлайн
    Cкачать фильм Иллюзия полёта бесплатно
    Иллюзия полёта скачать торрент в хорошем качестве
    Иллюзия полёта смотреть онлайн бесплатно в хорошем качестве
    Вы не можете начинать темы
    Вы не можете отвечать на сообщения
    Вы не можете редактировать свои сообщения
    Вы не можете удалять свои сообщения
    Вы не можете голосовать в опросах
    Вы не можете прикреплять файлы к сообщениям
    Вы можете скачивать файлы
    Иллюзия полёта / Flightplan [2005, триллер, драма, детектив, BDRip 1080p ] Дубляж, MVO, 2 x DVO смотреть онлайн, скачать торрент picoco.icu