Ссылка на приватное зеркало нашего сайта всего за 1$. Внимание количество ограничено!!!

2 сезон

iTunes

1 сезон

1

iTunes

iTunes

iTunes

1 сезон

RePack

30

ИГРА 18+

pack

ВАЖНО

!!Акция!!

Alien_RageХит недели

RePack

MK11
pack

Забери бонус

RePack

jed

!!Акция!!

Alien_Rage

RePack

fifa19

RePack

Assassins Creed: Odyssey

RePack

NEED FOR SPEED™ PAYBACK

4 сезон

9 сезон

Бесстыжие 9 сезон

Все сериалы

все сериалы на PB.wtf

RePack

FAR CRY 5
  

Держи меня за руку / 1-4 серии из 4 (Пётр Борисов (II)) [2018, Мелодрама, SATRip] pb.wtf

Держи меня за руку через торрент pb.wtf

Размер: 2.23 GB | Добавлен: 2 года 8 мес. назад | Торрент скачан:80 раз
Скачать  

11-02-2018 11:03 Держи меня за руку Скачать торрент  

Держи меня за рукуГод выпуска: 2018
Страна: Россия
Жанр: Мелодрама
Продолжительность: 4 x ~ 00:50:00
Субтитры: отсутствуют

Режиссер: Пётр Борисов (II)



В ролях:

Елена Дудина, Евгений Воловенко, Александр Кульков, Валентина Ляпина, Мария Лобанова, Николай Тумилович, Вадим Ракитин, Марина Богатова, Лариса Кузнецова, Павел Савинов, Владимир Терещенко, Ирина Ильинская, Алексей Малашкин, Виталия Корниенко

Описание:

Год назад в результате несчастного случая погиб маленький сын главной героини Ани . С тех пор счастье ушло из ее дома, а муж Юра , бывший начальник конезавода и мужчина ее мечты, совсем спился.Аня что угодно бы отдала, чтобы снова стать матерью, но муж после смерти сына вообще больше не хочет иметь детей. Не удивительно, что Анна разочаровалась в жизни и больше не ждет от нее чудес. Словно в подтверждение этого, Юра попадает в больницу, и чтобы оплачивать счета за его лечение, Ане приходится искать вторую работу.Она устраивается няней к овдовевшему бизнесмену – в дом к трем его маленьким, избалованным и непослушным дочерям. Сумеет ли Аня справиться со сложными детьми и сохранить работу?

Качество: SATRip
Формат: AVI

Видео: XviD, ~ 1800 Кбит/с, 720x400
Аудио#1: AC3, 2 ch, 192 Кбит/с
скриншот  скриншот  скриншот  

Общее
Полное имя : D:\Derzhi.menja.za.ruku.SATRip\Derzhi.menja.za.ruku.1.SATRip.avi
Формат : AVI
Формат/Информация : Audio Video Interleave
Размер файла : 610 Мбайт
Продолжительность : 44 м. 52 с.
Общий поток : 1901 Кбит/сек
Программа кодирования : VirtualDubMod 1.5.10.3 | www.virtualdub-fr.org || (build 2550/release)
Библиотека кодирования : VirtualDub build 29808/release

Видео
Идентификатор : 0
Формат : MPEG-4 Visual
Профиль формата : Advanced Simple@L5
Параметр BVOP формата : 2
Параметр QPel формата : Нет
Параметр GMC формата : Без точки перехода
Параметр матрицы формата : Default (H.263)
Идентификатор кодека : XVID
Идентификатор кодека/Подсказка : XviD
Продолжительность : 44 м. 52 с.
Битрейт : 1699 Кбит/сек
Ширина : 720 пикселей
Высота : 400 пикселей
Соотношение сторон : 16:9
Частота кадров : 25,000 кадров/сек
Цветовое пространство : YUV
Субдискретизация насыщенности : 4:2:0
Битовая глубина : 8 бит
Тип развёртки : Прогрессивная
Метод сжатия : С потерями
Бит/(Пиксели*Кадры) : 0.236
Размер потока : 545 Мбайт (89%)
Библиотека кодирования : XviD 1.2.1 (UTC 2008-12-04)

Аудио
Идентификатор : 1
Формат : MPEG Audio
Версия формата : Version 1
Профиль формата : Layer 3
Идентификатор кодека : 55
Идентификатор кодека/Подсказка : MP3
Продолжительность : 44 м. 52 с.
Вид битрейта : Постоянный
Битрейт : 192 Кбит/сек
Каналы : 2 канала
Частота : 48,0 КГц
Метод сжатия : С потерями
Размер потока : 61,6 Мбайт (10%)
Выравнивание : Соединение по промежуткам
Продолжительность промежутка : 40 мс. (1,00 видеокадр)
Время предзагрузки промежутка : 504 мс.
Библиотека кодирования : LAME3.99r
Настройки программы : -m s -V 4 -q 9 -lowpass 18.6 -b 192

pb.wtf



Скачать Держи меня за руку через торрент http://img12.lostpic.net/2018/02/11/3d23c0ced913b3901447401b9484f0af.jpg Скачать фильм Держи меня за руку через торрент бесплантно в хорошем качестве Описание: Год назад в результате несчастного случая погиб маленький сын главной героини Ани . С тех пор счастье ушло из ее дома, а муж Юра ... 7.7 10 3
Торрент: Зарегистрирован [2018-02-11 11:03] · скачан: 80 раз
Статус: √ проверено
Размер: 2.23 GB
Как cкачать? Как скачать Держи меня за руку через торрент | qTorrent

% Раздел Тема Автор DL S | L
Наши сериалы [ 1.92 GB ] Держи меня за руку / Серии: 1-4 из 4 [2017 SATRip-AVC] aleksan55 Скачать
1 | 0

28-11-2019 20:33  

Отключить всю рекламу на сайте

    Дорогой пользователь! Огромная просьба, поблагодарите релизера, оцените раздачу и оставьте свои комментарий, если Вы скачали Держи меня за руку через торрент бесплатно! Внесите свою лепту в развитие PiratBit!
    Комментировать посты могут только пользователи прошедшие не сложную регистрацию
    Показать сообщения:    

    Держи меня за руку через торрент
    Скачать бесплатно Держи меня за руку
    Держи меня за руку скачать торрент
    Держи меня за руку смотреть онлайн
    Cкачать фильм Держи меня за руку бесплатно
    Держи меня за руку скачать торрент в хорошем качестве
    Держи меня за руку смотреть онлайн бесплатно в хорошем качестве


    Вы не можете начинать темы
    Вы не можете отвечать на сообщения
    Вы не можете редактировать свои сообщения
    Вы не можете удалять свои сообщения
    Вы не можете голосовать в опросах
    Вы не можете прикреплять файлы к сообщениям
    Вы можете скачивать файлы