Ссылка на приватное зеркало нашего сайта всего за 1$. Внимание количество ограничено!!!

2 сезон

iTunes

1 сезон

1

iTunes

iTunes

iTunes

1 сезон

RePack

30

ИГРА 18+

pack

ВАЖНО

!!Акция!!

Alien_RageХит недели

RePack

MK11
pack

Забери бонус

RePack

jed

!!Акция!!

Alien_Rage

RePack

fifa19

RePack

Assassins Creed: Odyssey

RePack

NEED FOR SPEED™ PAYBACK

4 сезон

9 сезон

Бесстыжие 9 сезон

Все сериалы

все сериалы на PB.wtf

RePack

FAR CRY 5
  

Дневник Расспущеной Домохозяйки / Diary of a Horny Housewife (Cash Markman / Penthouse) [2009 г., Adult, Comedy, All sex, HDTV 1080p, Eng] pb.wtf

Дневник Расспущеной Домохозяйки через торрент pb.wtf

Размер: 4.37 GB | Добавлен: 2 года 8 мес. назад | Торрент скачан:325 раз
Скачать  

11-02-2018 11:16 Дневник Расспущеной Домохозяйки Скачать торрент  

Дневник Расспущеной Домохозяйки / Diary of a Horny Housewife
Год выпуска: 2009
Страна: США
Жанр: Adult, Comedy, All sex
Продолжительность: 01:29:32
Перевод: Перевод отсутствует (оригинал)
Субтитры: отсутствуют

Режиссер: Cash Markman
В ролях: India Summer, Niko, Tanya James, Jana Jordan, Holly Sampson, Angelina Ashe, Roxanne, Nikita Von James, Hall, Dane Cros, Evan Stone, Tommy Gunn

Описание: XXX Hardcore dirty laundry revealed as six, sexy, horny housewives vow to fuck! These wives are not desperate, they are depraved.
гугель:
ХХХ хардкор грязные белье показал, как шесть, сексуальные, похотливые домохозяйки клянутся трахаться! Эти жены не в отчаянии, они развратны.

Качество: HDTV 1080p
Формат: MKV
Видео кодек: AVC
Аудио кодек: AC3
Видео: 1920x1080 (16:9), 25 fps ~ 6800 Kbps
Аудио: 48 KHz, 2 ch ~ 192 Kb/s (английский)
скриншот   скриншот   скриншот   скриншот   скриншот  

Общее
Уникальный идентификатор : 170607262516444678020642764919661249897 (0x8059C378BC6BE812ABE3F159020DC569)
Полное имя : Q:\TorF\Penthouse.Diary.of.a.Horny.Housewife.2009.HDTV.1080p.x264.mkv
Формат : Matroska
Версия формата : Version 2
Размер файла : 4,37 Гбайт
Продолжительность : 1 ч. 29 м.
Общий поток : 6990 Кбит/сек
Дата кодирования : UTC 2012-02-17 07:12:27
Программа кодирования : mkvmerge v5.2.1 ('A Far Off Place') built on Jan 2 2012 23:21:10
Библиотека кодирования : libebml v1.2.3 + libmatroska v1.3.0

Видео
Идентификатор : 1
Формат : AVC
Формат/Информация : Advanced Video Codec
Профиль формата : High@L4.1
Параметр CABAC формата : Да
Параметр ReFrames формата : 4 кадра
Идентификатор кодека : V_MPEG4/ISO/AVC
Продолжительность : 1 ч. 29 м.
Битрейт : 6799 Кбит/сек
Ширина : 1920 пикселей
Высота : 1080 пикселей
Соотношение сторон : 16:9
Частота кадров : 25,000 кадров/сек
Цветовое пространство : YUV
Субдискретизация насыщенности : 4:2:0
Битовая глубина : 8 бит
Тип развёртки : Прогрессивная
Бит/(Пиксели*Кадры) : 0.131
Размер потока : 4,16 Гбайт (95%)
Библиотека кодирования : x264 core 120 r2164 da19765
Настройки программы : cabac=1 / ref=4 / deblock=1:0:0 / analyse=0x3:0x113 / me=umh / subme=7 / psy=1 / psy_rd=1.00:0.00 / mixed_ref=1 / me_range=16 / chroma_me=1 / trellis=1 / 8x8dct=1 / cqm=0 / deadzone=21,11 / fast_pskip=0 / chroma_qp_offset=-2 / threads=12 / sliced_threads=0 / nr=0 / decimate=1 / interlaced=0 / bluray_compat=0 / constrained_intra=0 / bframes=3 / b_pyramid=2 / b_adapt=1 / b_bias=0 / direct=1 / weightb=1 / open_gop=0 / weightp=2 / keyint=250 / keyint_min=25 / scenecut=40 / intra_refresh=0 / rc_lookahead=40 / rc=2pass / mbtree=1 / bitrate=6799 / ratetol=1.0 / qcomp=0.60 / qpmin=0 / qpmax=69 / qpstep=4 / cplxblur=20.0 / qblur=0.5 / ip_ratio=1.40 / aq=1:1.00
Default : Да
Forced : Нет

Аудио
Идентификатор : 2
Формат : AC-3
Формат/Информация : Audio Coding 3
Расширение режима : CM (complete main)
Идентификатор кодека : A_AC3
Продолжительность : 1 ч. 29 м.
Вид битрейта : Постоянный
Битрейт : 192 Кбит/сек
Каналы : 2 канала
Расположение каналов : Front: L R
Частота : 48,0 КГц
Битовая глубина : 16 бит
Метод сжатия : С потерями
Размер потока : 123 Мбайт (3%)
Язык : English
Default : Да
Forced : Нет

pb.wtf



pack Скачать Дневник Расспущеной Домохозяйки через торрент http://pic.kartinco.top/images/11/njvfk.jpg Скачать фильм Дневник Расспущеной Домохозяйки через торрент бесплантно в хорошем качестве Описание: XXX Hardcore dirty laundry revealed as six, sexy, horny housewives vow to fuck! These wives are not desperate, they are ... 9.5 10 11
Info! Золотая раздача, скачанное не засчитывается.
Торрент: Зарегистрирован [2018-02-11 11:16] · скачан: 325 раз
Статус: √ проверено
Размер: 4.37 GB
Как cкачать? Как скачать Дневник Расспущеной Домохозяйки через торрент | qTorrent

% Раздел Тема Автор DL S | L
Порно фильмы с сюжетом [ 1.36 GB ] Дневник Расспущеной Домохозяйки / Diary Of A Horny Housewife [2009 Feature Vignettes Straight MILF Fantasies DVDRip 320p] sheker187 Скачать
1 | 0

28-11-2019 20:33  

Отключить всю рекламу на сайте

11-02-2018 12:36 Дневник Расспущеной Домохозяйки Скачать торрент  

Топик был перенесен из форума Порно-ролики в форум Порно фильмы HD


sheker187pb.wtf



pack

11-02-2018 14:06 Дневник Расспущеной Домохозяйки Скачать торрент  

pb.wtf



pack
    Дорогой пользователь! Огромная просьба, поблагодарите релизера, оцените раздачу и оставьте свои комментарий, если Вы скачали Дневник Расспущеной Домохозяйки через торрент бесплатно! Внесите свою лепту в развитие PiratBit!
    Комментировать посты могут только пользователи прошедшие не сложную регистрацию
    Показать сообщения:    

    Дневник Расспущеной Домохозяйки через торрент
    Скачать бесплатно Дневник Расспущеной Домохозяйки
    Дневник Расспущеной Домохозяйки скачать торрент
    Дневник Расспущеной Домохозяйки смотреть онлайн
    Cкачать фильм Дневник Расспущеной Домохозяйки бесплатно
    Дневник Расспущеной Домохозяйки скачать торрент в хорошем качестве
    Дневник Расспущеной Домохозяйки смотреть онлайн бесплатно в хорошем качестве


    Вы не можете начинать темы
    Вы не можете отвечать на сообщения
    Вы не можете редактировать свои сообщения
    Вы не можете удалять свои сообщения
    Вы не можете голосовать в опросах
    Вы не можете прикреплять файлы к сообщениям
    Вы можете скачивать файлы