Ссылка на приватное зеркало всего за 1$. Внимание количество ограничено!!!

OK

1+1

iTunes

мы

OK

1

WEB-DLRip

Джокер

Пифагор

Ведьмак / The Witcher сериал

iTunes

ПШазам

ОК

Оно 2

iTunes

30
pack

Вам бонус

ВАЖНО

!!Акция!!

Alien_RageХит недели

RePack

Resident Evil 21

ИГРА 18+

pack

RePack

jed

RePack

fifa19

RePack

Assassins Creed: Odyssey

RePack

NEED FOR SPEED™ PAYBACK

4 сезон

9 сезон

Бесстыжие 9 сезон

Все сериалы

все сериалы на PB.wtf

RePack

FAR CRY 5
  

Разрешение / Permission (Брайан Крано) [2017, драма, мелодрама, комедия, WEB-DL 720p] MVO ["Синема УС] pb.wtf

Разрешение через торрент pb.wtf

Размер: 3.3 GB | Добавлен: 1 год 11 мес. назад | Торрент скачан:56 раз
Скачать  

11-02-2018 15:39 Разрешение Скачать торрент  

Разрешение / PermissionГод выпуска: 2017
Страна: США
Жанр: драма, мелодрама, комедия
Продолжительность: 01:39:13
Перевод: Любительский (многоголосый) ["Синема УС]
Субтитры: отсутствуют

Режиссер: Брайан Крано

rating

В ролях:

Ребекка Холл, Дэн Стивенс, Джейсон Судейкис, Джина Гершон, Франсуа Арно, Рауль Кастильо, Дэвид Джозеф Крэйг, Бриджет Эверетт, Мишель Хёрст

Описание:

Фильм рассказывает о паре, которая решила попробовать отношения с другими людьми, перед тем как официально решиться провести остаток своих дней вместе.

Качество: WEB-DL 720p
Формат: MKV
Видео кодек: H.264
Аудио кодек: AC3

Видео: 4376 Кбит/с, 1280x720
Аудио#1: AC3, 2 ch, 384 Кбит/с

скриншот  скриншот  скриншот  

Общее
Уникальный идентификатор : 253314769257240189056453956531285418570 (0xBE92A662E9F4CD88BBAF6F1B70BC624A)
Полное имя : D:\Permission.2017.P.WEB-DL.72Op_KOSHARA.mkv
Формат : Matroska
Версия формата : Version 2
Размер файла : 3,30 Гбайт
Продолжительность : 1 ч. 39 м.
Режим общего битрейта : Переменный
Общий поток : 4762 Кбит/сек
Дата кодирования : UTC 2018-02-10 17:14:48
Программа кодирования : mkvmerge v8.3.0 ('Over the Horizon') 64bit
Библиотека кодирования : libebml v1.3.1 + libmatroska v1.4.2

Видео
Идентификатор : 1
Формат : AVC
Формат/Информация : Advanced Video Codec
Профиль формата : High@L4.1
Параметр CABAC формата : Да
Параметр ReFrames формата : 4 кадра
Идентификатор кодека : V_MPEG4/ISO/AVC
Продолжительность : 1 ч. 39 м.
Вид битрейта : Переменный
Битрейт : 4376 Кбит/сек
Максимальный битрейт : 5000 Кбит/сек
Ширина : 1280 пикселей
Высота : 720 пикселей
Соотношение сторон : 16:9
Режим частоты кадров : Постоянный
Частота кадров : 23,976 (24000/1001) кадра/сек
Стандарт вещания : Component
Цветовое пространство : YUV
Субдискретизация насыщенности : 4:2:0
Битовая глубина : 8 бит
Тип развёртки : Прогрессивная
Бит/(Пиксели*Кадры) : 0.194
Размер потока : 2,97 Гбайт (90%)
Default : Да
Forced : Нет
Цветовой диапазон : Limited
Основные цвета : BT.709
Характеристики трансфера : BT.709
Коэффициенты матрицы : BT.709

Аудио
Идентификатор : 2
Формат : AC-3
Формат/Информация : Audio Coding 3
Расширение режима : CM (complete main)
Параметр Endianness формата : Big
Идентификатор кодека : A_AC3
Продолжительность : 1 ч. 39 м.
Вид битрейта : Постоянный
Битрейт : 384 Кбит/сек
Каналы : 2 канала
Расположение каналов : Front: L R
Частота : 48,0 КГц
Частота кадров : 31,250 кадров/сек (1536 spf)
Метод сжатия : С потерями
Размер потока : 273 Мбайт (8%)
Default : Да
Forced : Нет

pb.wtf



Скачать Разрешение через торрент http://img12.lostpic.net/2018/02/11/f0b20eff580710b1f8adee5d3de4f0eb.jpg Скачать фильм Разрешение через торрент бесплантно в хорошем качестве Описание:Фильм рассказывает о паре, которая решила попробовать отношения с другими людьми, перед тем как официально решиться провести ... 10 10 3
Торрент: Зарегистрирован [2018-02-11 15:39] · скачан: 56 раз
Статус: T временная
Размер: 3.3 GB
Как cкачать? Как скачать Разрешение через торрент | qTorrent

% Раздел Тема Автор DL S | L
T Фильмы (мультфильмы) cо спонсором показа (Новинки AVI/MKV) [ 3.65 GB ] Право на измену / Разрешение / Permission [2017 WEB-DL 1080p] DUB [Line] bober100 Скачать
1 | 0
T Фильмы (мультфильмы) cо спонсором показа (Новинки AVI/MKV) [ 3.34 GB ] Право на измену / Разрешение / Permission [2017 WEB-DL 720p] DUB [Line] bober100 Скачать
1 | 0
T Фильмы (мультфильмы) cо спонсором показа (Новинки AVI/MKV) [ 1.37 GB ] Право на измену / Разрешение / Permission [2017 WEB-DLRip] DUB [Line] bober100 Скачать
2 | 0
T Фильмы (мультфильмы) cо спонсором показа (Новинки AVI/MKV) [ 1.37 GB ] Разрешение / Permission [2017 WEB-DLRip] MVO ["Синема УС] bober100 Скачать
1 | 0
Фильмы 2006-2008 [ 698 MB ] Спросите разрешение детей! / Demandez la permission aux enfants / Kid Power [2007 DVDRip] DVO -=Cherry=- Скачать
1 | 0

28-11-2019 20:33  

Отключить всю рекламу на сайте

    Дорогой пользователь! Огромная просьба, поблагодарите релизера, оцените раздачу и оставьте свои комментарий, если Вы скачали Разрешение через торрент бесплатно! Внесите свою лепту в развитие PiratBit!
    Комментировать посты могут только пользователи прошедшие не сложную регистрацию
    Показать сообщения:    

    Разрешение через торрент
    Скачать бесплатно Разрешение
    Разрешение скачать торрент
    Разрешение смотреть онлайн
    Cкачать фильм Разрешение бесплатно
    Разрешение скачать торрент в хорошем качестве
    Разрешение смотреть онлайн бесплатно в хорошем качестве


    Вы не можете начинать темы
    Вы не можете отвечать на сообщения
    Вы не можете редактировать свои сообщения
    Вы не можете удалять свои сообщения
    Вы не можете голосовать в опросах
    Вы не можете прикреплять файлы к сообщениям
    Вы можете скачивать файлы