Ссылка на приватное зеркало нашего сайта всего за 1$. Внимание количество ограничено!!!

2 сезон

iTunes

iTunes

1

iTunes

iTunes

iTunes

WEBRip

iTunes

30
pack

Вам бонус

ВАЖНО

!!Акция!!

Alien_RageХит недели

RePack

Horizon Zero Dawn

ИГРА 18+

pack

RePack

jed

!!Акция!!

Alien_Rage

RePack

fifa19

RePack

Assassins Creed: Odyssey

RePack

NEED FOR SPEED™ PAYBACK

4 сезон

9 сезон

Бесстыжие 9 сезон

Все сериалы

все сериалы на PB.wtf

RePack

FAR CRY 5
  

Гроб 2 / Coffin 2 (Кипп Трайббл) [2017, ужасы, триллер, криминал, WEB-DL 720p] MVO [GreenРай Studio] pb.wtf

Гроб 2 через торрент pb.wtf

Размер: 3.03 GB | Добавлен: 2 года 7 мес. назад | Торрент скачан:38 раз
Скачать  

11-02-2018 17:57 Гроб 2 Скачать торрент  

Гроб 2 / Coffin 2Год выпуска: 2017
Страна: США
Жанр: ужасы, триллер, криминал
Продолжительность: 01:42:37
Перевод: Любительский (многоголосый) -
Субтитры: отсутствуют

Режиссер: Кипп Трайббл

rating

В ролях:

Роберт Аллен Мюкс, Дезри Мари Велез, Лора Джеймс, Эрик Чаварриа, Джонни Алонсо, Чак Саэйл, Элиза Никсон, Санни Доенч, Мишель Мартин, Дэн Эванс

Описание:

Трик находится среди пяти парализованных заложников. Пока агент ФБР и бывший детектив прикладывают все возможные усилия, чтобы найти их, группа несчастных пытается выбраться и избежать ужасной кончины.

Качество: WEB-DL 720p
Формат: MKV
Видео кодек: H.264
Аудио кодек: AC3

Видео: MPEG-4 AVC, 4000 Кбит/с, 1280x720
Аудио#1: Русский (MP3, 2 ch, 320 Кбит/с)

скриншот   скриншот   скриншот  

eneral
Unique ID : 210201951415720354526879330754582231453 (0x9E236C5AC4B9536299A6B9A803AB399D)
Complete name : E:GreenRayCoffin.2.2017.P.WEB-DL.720p.mkv
Format : Matroska
Format version : Version 4 / Version 2
File size : 3.03 GiB
Duration : 1 h 42 min
Overall bit rate mode : Constant
Overall bit rate : 4 249 kb/s
Encoded date : UTC 2018-02-10 15:56:18
Writing application : mkvmerge v8.3.0 ('Over the Horizon') 64bit
Writing library : libebml v1.3.1 + libmatroska v1.4.2

Video
ID : 1
Format : AVC
Format/Info : Advanced Video Codec
Format profile : Main@L3.2
Format settings : CABAC / 3 Ref Frames
Format settings, CABAC : Yes
Format settings, ReFrames : 3 frames
Codec ID : V_MPEG4/ISO/AVC
Duration : 1 h 42 min
Bit rate mode : Constant
Bit rate : 4 000 kb/s
Width : 1 280 pixels
Height : 720 pixels
Display aspect ratio : 16:9
Frame rate mode : Constant
Frame rate : 23.976 (24000/1001) FPS
Standard : NTSC
Color space : YUV
Chroma subsampling : 4:2:0
Bit depth : 8 bits
Scan type : Progressive
Bits/(Pixel*Frame) : 0.181
Stream size : 2.80 GiB (92%)
Language : English
Default : Yes
Forced : No
Color range : Limited

Audio
ID : 2
Format : MPEG Audio
Format version : Version 1
Format profile : Layer 3
Format settings : Joint stereo
Codec ID : A_MPEG/L3
Codec ID/Hint : MP3
Duration : 1 h 42 min
Bit rate mode : Constant
Bit rate : 320 kb/s
Channel(s) : 2 channels
Sampling rate : 48.0 kHz
Frame rate : 41.667 FPS (1152 SPF)
Compression mode : Lossy
Stream size : 234 MiB (8%)
Default : Yes
Forced : No

pb.wtf



Скачать Гроб 2 через торрент http://d.radikal.ru/d13/1802/a9/88b7b4ff67dd.jpg Скачать фильм Гроб 2 через торрент бесплантно в хорошем качестве Описание: Трик находится среди пяти парализованных заложников. Пока агент ФБР и бывший детектив прикладывают все возможные усилия, чтобы ... 10 10 4
Торрент: Зарегистрирован [2018-02-11 17:57] · скачан: 38 раз
Статус: T временная
Размер: 3.03 GB
Как cкачать? Как скачать Гроб 2 через торрент | qTorrent

% Раздел Тема Автор DL S | L
T Фильмы (мультфильмы) cо спонсором показа (Новинки AVI/MKV) [ 1.36 GB ] Гроб 2 / Coffin 2 [2017 WEB-DLRip] MVO [GreenРай Studio] bober100 Скачать
1 | 0

28-11-2019 20:33  

Отключить всю рекламу на сайте

    Дорогой пользователь! Огромная просьба, поблагодарите релизера, оцените раздачу и оставьте свои комментарий, если Вы скачали Гроб 2 через торрент бесплатно! Внесите свою лепту в развитие PiratBit!
    Комментировать посты могут только пользователи прошедшие не сложную регистрацию
    Показать сообщения:    

    Гроб 2 через торрент
    Скачать бесплатно Гроб 2
    Гроб 2 скачать торрент
    Гроб 2 смотреть онлайн
    Cкачать фильм Гроб 2 бесплатно
    Гроб 2 скачать торрент в хорошем качестве
    Гроб 2 смотреть онлайн бесплатно в хорошем качестве


    Вы не можете начинать темы
    Вы не можете отвечать на сообщения
    Вы не можете редактировать свои сообщения
    Вы не можете удалять свои сообщения
    Вы не можете голосовать в опросах
    Вы не можете прикреплять файлы к сообщениям
    Вы можете скачивать файлы