Ссылка на приватное зеркало всего за 1$. Внимание количество ограничено!!!

OK

1+1

iTunes

мы

OK

1

WEB-DLRip

Джокер

Пифагор

Ведьмак / The Witcher сериал

Лицензия

ПШазам

ОК

Оно 2

iTunes

30
pack

Вам бонус

ВАЖНО

!!Акция!!

Alien_RageХит недели

RePack

Resident Evil 21

ИГРА 18+

pack

RePack

jed

RePack

fifa19

RePack

Assassins Creed: Odyssey

RePack

NEED FOR SPEED™ PAYBACK

4 сезон

9 сезон

Бесстыжие 9 сезон

Все сериалы

все сериалы на PB.wtf

RePack

FAR CRY 5
  

Бекс / Becks (Дэниэл Пауэлл) [2017, мюзикл, драма, мелодрама, WEB-DL 720p] MVO ["Синема УС] pb.wtf

Бекс через торрент pb.wtf

Размер: 3.15 GB | Добавлен: 1 год 11 мес. назад | Торрент скачан:15 раз
Скачать  

11-02-2018 18:25 Бекс Скачать торрент  

Бекс / BecksГод выпуска: 2017
Страна: США
Жанр: мюзикл, драма, мелодрама
Продолжительность: 01:34:48
Перевод: Любительский (многоголосый) ["Синема УС]
Субтитры: отсутствуют

Режиссер: Дэниэл Пауэлл

rating

В ролях:

Уолли Данн, Изабелла Фаррелл, Дэн Фоглер, Каден Герб, Хадсон Герб, Натали Голд, Шаш Голдберг, Лена Холл, Моника Хэммонд, Хейли Киёко

Описание:

После неудачного разрыва отношений бруклинский музыкант решает вернуться в городок своего детства. Там она подрабатывает давая уроки игры на гитаре и выступая в одном местном баре. Но жизнь продолжается, и куда же без любви? Время лечит раны и приносит интересные события.

Качество: WEB-DL 720p
Формат: MKV
Видео кодек: H.264
Аудио кодек: AC3

Видео: 4376 Кбит/с, 1280x536
Аудио#1: AC3, 2 ch, 384 Кбит/с

скриншот  скриншот  скриншот  

Общее
Уникальный идентификатор : 207133015463731167986875099394158989009 (0x9BD45E21472CE6B99F43F9D838898ED1)
Полное имя : D:\Becks.2017.P.WEB-DL.72Op_KOSHARA.mkv
Формат : Matroska
Версия формата : Version 2
Размер файла : 3,15 Гбайт
Продолжительность : 1 ч. 34 м.
Режим общего битрейта : Переменный
Общий поток : 4762 Кбит/сек
Дата кодирования : UTC 2018-02-11 09:05:23
Программа кодирования : mkvmerge v8.3.0 ('Over the Horizon') 64bit
Библиотека кодирования : libebml v1.3.1 + libmatroska v1.4.2

Видео
Идентификатор : 1
Формат : AVC
Формат/Информация : Advanced Video Codec
Профиль формата : High@L4.1
Параметр CABAC формата : Да
Параметр ReFrames формата : 4 кадра
Идентификатор кодека : V_MPEG4/ISO/AVC
Продолжительность : 1 ч. 34 м.
Вид битрейта : Переменный
Битрейт : 4376 Кбит/сек
Максимальный битрейт : 5000 Кбит/сек
Ширина : 1280 пикселей
Высота : 536 пикселей
Соотношение сторон : 2,40:1
Режим частоты кадров : Постоянный
Частота кадров : 23,976 (24000/1001) кадра/сек
Стандарт вещания : Component
Цветовое пространство : YUV
Субдискретизация насыщенности : 4:2:0
Битовая глубина : 8 бит
Тип развёртки : Прогрессивная
Бит/(Пиксели*Кадры) : 0.260
Размер потока : 2,84 Гбайт (90%)
Default : Да
Forced : Нет
Цветовой диапазон : Limited
Основные цвета : BT.709
Характеристики трансфера : BT.709
Коэффициенты матрицы : BT.709

Аудио
Идентификатор : 2
Формат : AC-3
Формат/Информация : Audio Coding 3
Расширение режима : CM (complete main)
Параметр Endianness формата : Big
Идентификатор кодека : A_AC3
Продолжительность : 1 ч. 34 м.
Вид битрейта : Постоянный
Битрейт : 384 Кбит/сек
Каналы : 2 канала
Расположение каналов : Front: L R
Частота : 48,0 КГц
Частота кадров : 31,250 кадров/сек (1536 spf)
Метод сжатия : С потерями
Размер потока : 260 Мбайт (8%)
Default : Да
Forced : Нет

pb.wtf



Скачать Бекс через торрент http://img12.lostpic.net/2018/02/11/e7be1bdc2d933a37a2150228c3ff0da2.jpg Скачать фильм Бекс через торрент бесплантно в хорошем качестве Описание: После неудачного разрыва отношений бруклинский музыкант решает вернуться в городок своего детства. Там она подрабатывает давая ... 9 10 4
Торрент: Зарегистрирован [2018-02-11 18:25] · скачан: 15 раз
Статус: T временная
Размер: 3.15 GB
Как cкачать? Как скачать Бекс через торрент | qTorrent

% Раздел Тема Автор DL S | L
T Фильмы (мультфильмы) cо спонсором показа (Новинки AVI/MKV) [ 1.37 GB ] Бекс / Becks [2017 мюзикл WEB-DLRip] MVO ["Синема УС] bober100 Скачать
1 | 0

28-11-2019 20:33  

Отключить всю рекламу на сайте

    Дорогой пользователь! Огромная просьба, поблагодарите релизера, оцените раздачу и оставьте свои комментарий, если Вы скачали Бекс через торрент бесплатно! Внесите свою лепту в развитие PiratBit!
    Комментировать посты могут только пользователи прошедшие не сложную регистрацию
    Показать сообщения:    

    Бекс через торрент
    Скачать бесплатно Бекс
    Бекс скачать торрент
    Бекс смотреть онлайн
    Cкачать фильм Бекс бесплатно
    Бекс скачать торрент в хорошем качестве
    Бекс смотреть онлайн бесплатно в хорошем качестве


    Вы не можете начинать темы
    Вы не можете отвечать на сообщения
    Вы не можете редактировать свои сообщения
    Вы не можете удалять свои сообщения
    Вы не можете голосовать в опросах
    Вы не можете прикреплять файлы к сообщениям
    Вы можете скачивать файлы