Ссылка на приватное зеркало всего за 1$. Внимание количество ограничено!!!

OK

1+1

iTunes

мы

OK

1

WEB-DLRip

Джокер

Пифагор

Ведьмак / The Witcher сериал

Лицензия

ПШазам

ОК

Оно 2

iTunes

30
pack

Вам бонус

ВАЖНО

!!Акция!!

Alien_RageХит недели

RePack

Resident Evil 21

ИГРА 18+

pack

RePack

jed

!!Акция!!

Alien_Rage

RePack

fifa19

RePack

Assassins Creed: Odyssey

RePack

NEED FOR SPEED™ PAYBACK

4 сезон

9 сезон

Бесстыжие 9 сезон

Все сериалы

все сериалы на PB.wtf

RePack

FAR CRY 5
  

В облаке / In the Cloud (Роберт Скотт Уайлдс) [2018, триллер, WEB-DL 720p] MVO ["Синема УС] pb.wtf

В облаке через торрент pb.wtf

Размер: 2.92 GB | Добавлен: 1 год 11 мес. назад | Торрент скачан:47 раз
Скачать  

11-02-2018 18:53 В облаке Скачать торрент  

В облаке / In the CloudГод выпуска: 2018
Страна: США
Жанр: триллер
Продолжительность: 01:29:04
Перевод: Любительский (многоголосый) ["Синема УС]
Субтитры: отсутствуют

Режиссер: Роберт Скотт Уайлдс

rating

В ролях:

Джастин Чатвин, Лора Фрейзер, Гэбриел Бирн, Нора Арнезедер, Чарли Карвер, Макс Карвер, Адетомива Едун, Колин Мурта, Шон Пауэр,

Описание:

Фильм о технологической компании, разрабатывающей программное обеспечение, которое бы загружало человеческое сознание и воспоминания в виртуальное хранилище.

Качество: WEB-DL 720p
Формат: MKV
Видео кодек: H.264
Аудио кодек: AC3

Видео: 4308 Кбит/с, 1280x720
Аудио#1: AC3, 2 ch, 384 Кбит/с

скриншот  скриншот  скриншот  

Общее
Уникальный идентификатор : 185268784201386790966063172102971108667 (0x8B61784D0761D26B85DFA5C2F466AD3B)
Полное имя : D:\In.the.cloud.2018.P.WEB-DL.72Op_KOSHARA.mkv
Формат : Matroska
Версия формата : Version 2
Размер файла : 2,92 Гбайт
Продолжительность : 1 ч. 29 м.
Режим общего битрейта : Переменный
Общий поток : 4694 Кбит/сек
Дата кодирования : UTC 2018-02-10 17:19:19
Программа кодирования : mkvmerge v8.3.0 ('Over the Horizon') 64bit
Библиотека кодирования : libebml v1.3.1 + libmatroska v1.4.2

Видео
Идентификатор : 1
Формат : AVC
Формат/Информация : Advanced Video Codec
Профиль формата : High@L4.1
Параметр CABAC формата : Да
Параметр ReFrames формата : 4 кадра
Идентификатор кодека : V_MPEG4/ISO/AVC
Продолжительность : 1 ч. 29 м.
Вид битрейта : Переменный
Битрейт : 4308 Кбит/сек
Максимальный битрейт : 5000 Кбит/сек
Ширина : 1280 пикселей
Высота : 720 пикселей
Соотношение сторон : 16:9
Режим частоты кадров : Постоянный
Частота кадров : 23,976 (24000/1001) кадра/сек
Стандарт вещания : Component
Цветовое пространство : YUV
Субдискретизация насыщенности : 4:2:0
Битовая глубина : 8 бит
Тип развёртки : Прогрессивная
Бит/(Пиксели*Кадры) : 0.191
Размер потока : 2,62 Гбайт (90%)
Default : Да
Forced : Нет
Цветовой диапазон : Limited
Основные цвета : BT.709
Характеристики трансфера : BT.709
Коэффициенты матрицы : BT.709

Аудио
Идентификатор : 2
Формат : AC-3
Формат/Информация : Audio Coding 3
Расширение режима : CM (complete main)
Параметр Endianness формата : Big
Идентификатор кодека : A_AC3
Продолжительность : 1 ч. 29 м.
Вид битрейта : Постоянный
Битрейт : 384 Кбит/сек
Каналы : 2 канала
Расположение каналов : Front: L R
Частота : 48,0 КГц
Частота кадров : 31,250 кадров/сек (1536 spf)
Метод сжатия : С потерями
Размер потока : 245 Мбайт (8%)
Default : Да
Forced : Нет

pb.wtf



Скачать В облаке через торрент http://img12.lostpic.net/2018/02/11/910b6286a5a113c69a048f541a9e2961.jpg Скачать фильм В облаке через торрент бесплантно в хорошем качестве Описание: Фильм о технологической компании, разрабатывающей программное обеспечение, которое бы загружало человеческое сознание и ... 7.8 10 4
Торрент: Зарегистрирован [2018-02-11 18:53] · скачан: 47 раз
Статус: T временная
Размер: 2.92 GB
Как cкачать? Как скачать В облаке через торрент | qTorrent

% Раздел Тема Автор DL S | L
Фильмы с авторской озвучкой [ 1.46 GB ] Прогулка в облаках / A Walk in the Clouds [1995 BDRip] [AVO] killermax2013 Скачать
1 | 0
T Фильмы (мультфильмы) cо спонсором показа (Новинки AVI/MKV) [ 1.37 GB ] В облаке / In the Cloud [2018 WEB-DLRip] MVO ["Синема УС] bober100 Скачать
1 | 0
Фильмы до 2000 г. [ 1.47 GB ] Прогулка в облаках / A Walk in the Clouds [1995 HDRip многоголосый ] Dean24 Скачать
1 | 0
Фильмы [HD 720p, 1080p] (Хороший звук DUB, MVO) [ 4.36 GB ] Голова в облаках / Head in the Clouds [2003 военный BDRip 720p - [] _denis_100 Скачать
1 | 0
Фильмы [HD 720p, 1080p] (Хороший звук DUB, MVO) [ 5.28 GB ] Прогулка в облаках / A Walk in the Clouds [1995 BDRip ] Flint3 Скачать
1 | 0

28-11-2019 20:33  

Отключить всю рекламу на сайте

    Дорогой пользователь! Огромная просьба, поблагодарите релизера, оцените раздачу и оставьте свои комментарий, если Вы скачали В облаке через торрент бесплатно! Внесите свою лепту в развитие PiratBit!
    Комментировать посты могут только пользователи прошедшие не сложную регистрацию
    Показать сообщения:    

    В облаке через торрент
    Скачать бесплатно В облаке
    В облаке скачать торрент
    В облаке смотреть онлайн
    Cкачать фильм В облаке бесплатно
    В облаке скачать торрент в хорошем качестве
    В облаке смотреть онлайн бесплатно в хорошем качестве


    Вы не можете начинать темы
    Вы не можете отвечать на сообщения
    Вы не можете редактировать свои сообщения
    Вы не можете удалять свои сообщения
    Вы не можете голосовать в опросах
    Вы не можете прикреплять файлы к сообщениям
    Вы можете скачивать файлы