Ссылка на приватное зеркало всего за 1$. Внимание количество ограничено!!!

OK

1+1

iTunes

мы

OK

1

WEB-DLRip

Джокер

Пифагор

Ведьмак / The Witcher сериал

iTunes

ПШазам

ОК

Оно 2

iTunes

30
pack

Вам бонус

ВАЖНО

!!Акция!!

Alien_RageХит недели

RePack

Resident Evil 21

ИГРА 18+

pack

RePack

jed

RePack

fifa19

RePack

Assassins Creed: Odyssey

RePack

NEED FOR SPEED™ PAYBACK

4 сезон

9 сезон

Бесстыжие 9 сезон

Все сериалы

все сериалы на PB.wtf

RePack

FAR CRY 5
  

Принуждение / Compulsion (Крэйг Гудвил) [2016, ужасы, фэнтези, триллер, WEB-DL 720p] MVO ["Синема УС] pb.wtf

Принуждение через торрент pb.wtf

Размер: 2.96 GB | Добавлен: 1 год 11 мес. назад | Торрент скачан:95 раз
Скачать  

11-02-2018 19:22 Принуждение Скачать торрент  

Принуждение / CompulsionГод выпуска: 2016
Страна: Великобритания, Канада, Италия
Жанр: ужасы, фэнтези, триллер
Продолжительность: 01:25:18
Перевод: Любительский (многоголосый) ["Синема УС]
Субтитры: отсутствуют

Режиссер: Крэйг Гудвил

rating

В ролях:

Анали Типтон, Марта Гастини, Якоб Седергрен, Валентен Мерле, Ян Бейвут, Магдалена Гроховска, Анита Кравос, Леонардо Мессерклингер, Франко Барберо

Описание:

Сэди — начинающий писатель эротических романов. Её бывший любовник неожиданно приглашает девушку присоединиться к нему на вилле в Италии. Вскоре выясняется, что героиня не единственная приглашённая на этот отдых, так как сюда же приезжает загадочная женщина по имени Франческа.

Качество: WEB-DL 720p
Формат: MKV
Видео кодек: H.264
Аудио кодек: AC3

Видео: 4575 Кбит/с, 1280x544
Аудио#1: AC3, 2 ch, 384 Кбит/с

скриншот  скриншот  скриншот  

Общее
Уникальный идентификатор : 181327613988608507466530664581258411360 (0x886A6D9B66E4228E9E1B17F59FB1FD60)
Полное имя : D:\Compulsion.2018.P.WEB-DL.72Op_KOSHARA.mkv
Формат : Matroska
Версия формата : Version 2
Размер файла : 2,96 Гбайт
Продолжительность : 1 ч. 25 м.
Режим общего битрейта : Переменный
Общий поток : 4960 Кбит/сек
Дата кодирования : UTC 2018-02-10 08:09:14
Программа кодирования : mkvmerge v8.3.0 ('Over the Horizon') 64bit
Библиотека кодирования : libebml v1.3.1 + libmatroska v1.4.2

Видео
Идентификатор : 1
Формат : AVC
Формат/Информация : Advanced Video Codec
Профиль формата : High@L4.1
Параметр CABAC формата : Да
Параметр ReFrames формата : 4 кадра
Идентификатор кодека : V_MPEG4/ISO/AVC
Продолжительность : 1 ч. 25 м.
Вид битрейта : Переменный
Битрейт : 4575 Кбит/сек
Максимальный битрейт : 5000 Кбит/сек
Ширина : 1280 пикселей
Высота : 544 пикселя
Соотношение сторон : 2,35:1
Режим частоты кадров : Постоянный
Частота кадров : 23,976 (24000/1001) кадра/сек
Стандарт вещания : Component
Цветовое пространство : YUV
Субдискретизация насыщенности : 4:2:0
Битовая глубина : 8 бит
Тип развёртки : Прогрессивная
Бит/(Пиксели*Кадры) : 0.268
Размер потока : 2,67 Гбайт (90%)
Default : Да
Forced : Нет
Цветовой диапазон : Limited
Основные цвета : BT.709
Характеристики трансфера : BT.709
Коэффициенты матрицы : BT.709

Аудио
Идентификатор : 2
Формат : AC-3
Формат/Информация : Audio Coding 3
Расширение режима : CM (complete main)
Параметр Endianness формата : Big
Идентификатор кодека : A_AC3
Продолжительность : 1 ч. 25 м.
Вид битрейта : Постоянный
Битрейт : 384 Кбит/сек
Каналы : 2 канала
Расположение каналов : Front: L R
Частота : 48,0 КГц
Частота кадров : 31,250 кадров/сек (1536 spf)
Метод сжатия : С потерями
Размер потока : 234 Мбайт (8%)
Default : Да
Forced : Нет
pb.wtf



Скачать Принуждение через торрент http://img12.lostpic.net/2018/02/11/008ebe4be67613a4ac67bad775edee53.jpg Скачать фильм Принуждение через торрент бесплантно в хорошем качестве Описание: Сэди — начинающий писатель эротических романов. Её бывший любовник неожиданно приглашает девушку присоединиться к нему на вилле в ... 10 10 3
Торрент: Зарегистрирован [2018-02-11 19:22] · скачан: 95 раз
Статус: T временная
Размер: 2.96 GB
Как cкачать? Как скачать Принуждение через торрент | qTorrent

% Раздел Тема Автор DL S | L
T Фильмы (мультфильмы) cо спонсором показа (Новинки AVI/MKV) [ 1.35 GB ] Принуждение / Compulsion [2016 WEB-DLRip] MVO ["Синема УС] bober100 Скачать
1 | 0
Гонзо [ 1.37 GB ] Сексуальное Принуждение / Sexual Compulsion [2004 All Sex Anal Oral Gonzo Legal Teen Pantyhose DVDRip 368p] sheker187 Скачать
1 | 0

28-11-2019 20:33  

Отключить всю рекламу на сайте

    Дорогой пользователь! Огромная просьба, поблагодарите релизера, оцените раздачу и оставьте свои комментарий, если Вы скачали Принуждение через торрент бесплатно! Внесите свою лепту в развитие PiratBit!
    Комментировать посты могут только пользователи прошедшие не сложную регистрацию
    Показать сообщения:    

    Принуждение через торрент
    Скачать бесплатно Принуждение
    Принуждение скачать торрент
    Принуждение смотреть онлайн
    Cкачать фильм Принуждение бесплатно
    Принуждение скачать торрент в хорошем качестве
    Принуждение смотреть онлайн бесплатно в хорошем качестве


    Вы не можете начинать темы
    Вы не можете отвечать на сообщения
    Вы не можете редактировать свои сообщения
    Вы не можете удалять свои сообщения
    Вы не можете голосовать в опросах
    Вы не можете прикреплять файлы к сообщениям
    Вы можете скачивать файлы