Ссылка на приватное зеркало нашего сайта всего за 1$. Внимание количество ограничено!!!

2 сезон

iTunes

1 сезон

1

2 сезон

2 сезон

iTunes

1 сезон

RePack

30

Новинка

ВАЖНО

ИГРА 18+

pack

RePack

MK11
pack

Забери бонус

RePack

jed

!!Акция!!

Alien_Rage

RePack

fifa19

RePack

Assassins Creed: Odyssey

RePack

NEED FOR SPEED™ PAYBACK

4 сезон

9 сезон

Бесстыжие 9 сезон

Все сериалы

все сериалы на PB.wtf

RePack

FAR CRY 5
  

Здесь и сейчас / Here and Now / Сезон: 1 / Серии: 1-3 из 10 (Ута Бризвитц, Алан Болл, Джереми Подесва) [2018, Драма, комедия, WEB-DLRip] MVO [Амедиа] pb.wtf

Здесь и сейчас через торрент pb.wtf

Размер: 2.1 GB | Добавлен: 2 года 9 мес. назад | Торрент скачан:17 раз
Скачать  

12-02-2018 09:53 Здесь и сейчас Скачать торрент  

Здесь и сейчас / Here and NowГод выпуска: 2018
Страна: США
Жанр: Драма, комедия
Продолжительность: ~ 01:00:00
Перевод: Профессиональный многоголосый - Амедиа
Субтитры: отсутствуют

Режиссер: Ута Бризвитц, Алан Болл, Джереми Подесва

rating

В ролях:

Холли Хантер, Соси Бэйкон, , Джеррика Хинтон, Рэймонд Ли, Тим Роббинс, Дэниэл Дзоватто, Марван Салама, Джо Уильямсон, Некар Задеган

Описание:

История о многонациональной семье, которая живет в США: профессоре философии Грег Бишоп, его супруге-юристе Одри, их общем ребенке и трех приёмных детях — из Вьетнама, Колумбии и Сомали. За фасадом счастливого, прогрессивного семейства таится множество проблем, к которым со временем прибавляется ещё одна напасть — один из детей начинает наблюдать необъяснимые вещи, невидимые для других.

Качество: WEB-DLRip
Формат: AVI

Видео: 720x400 (1.80:1), 23.976 fps, XviD build 73 ~1500 kbps avg, 0.22 bit/pixel
Аудио: 48 kHz, AC3 Dolby Digital, 2/0 (L,R) ch, ~192 kbps
скриншот   скриншот   скриншот   скриншот  

Общее
Полное имя : D:\3des.Y.Ce4as.S01.Amd\3des.Y.Ce4as.S01E01.Amd.avi
Формат : AVI
Формат/Информация : Audio Video Interleave
Размер файла : 750 Мбайт
Продолжительность : 1 ч. 0 м.
Общий поток : 1725 Кбит/сек
Программа кодирования : VirtualDubMod 1.5.10.2 (build 2540/release)
Библиотека кодирования : VirtualDubMod build 2540/release

Видео
Идентификатор : 0
Формат : MPEG-4 Visual
Профиль формата : Advanced Simple@L5
Параметр BVOP формата : 2
Параметр QPel формата : Нет
Параметр GMC формата : Без точки перехода
Параметр матрицы формата : Default (MPEG)
Идентификатор кодека : XVID
Идентификатор кодека/Подсказка : XviD
Продолжительность : 1 ч. 0 м.
Битрейт : 1524 Кбит/сек
Ширина : 720 пикселей
Высота : 400 пикселей
Соотношение сторон : 16:9
Частота кадров : 23,976 (24000/1001) кадра/сек
Цветовое пространство : YUV
Субдискретизация насыщенности : 4:2:0
Битовая глубина : 8 бит
Тип развёртки : Прогрессивная
Метод сжатия : С потерями
Бит/(Пиксели*Кадры) : 0.221
Размер потока : 663 Мбайт (88%)
Библиотека кодирования : XviD 1.2.1 (UTC 2008-12-04)

Аудио
Идентификатор : 1
Формат : AC-3
Формат/Информация : Audio Coding 3
Расширение режима : CM (complete main)
Параметр Endianness формата : Big
Идентификатор кодека : 2000
Продолжительность : 1 ч. 0 м.
Вид битрейта : Постоянный
Битрейт : 192 Кбит/сек
Каналы : 2 канала
Расположение каналов : Front: L R
Частота : 48,0 КГц
Частота кадров : 31,250 кадров/сек (1536 spf)
Метод сжатия : С потерями
Размер потока : 83,5 Мбайт (11%)
Выравнивание : Разделение по промежуткам
Продолжительность промежутка : 42 мс. (1,00 видеокадр)
Время предзагрузки промежутка : 500 мс.

Когда раздача ведётся путём добавления новых серий, при каждом добавлении создётся новый торрент. Чтобы начать докачку новой серии, пользователям необходимо сделать следующее:
(1) остановить скачивание,
(2) удалить старый торрент у себя из клиента (старые серии удалять не надо),
(3) скачать новый торрент и запустить его у себя в клиенте вместо старого, при этом указать клиенту путь в старую папку, куда и должно происходить скачивание новых серий.
Ваш клиент при этом должен произвести хеширование (проверку) старой папки (если не производит сам - помогите ему сделать это), и будет докачивать только те серии, которых у вас ещё нет. Старые серии при этом не удаляются, а продолжают раздаваться!
Eсли вы уже удалили старые серии, то предотвратить повторную закачку старых серий можно, отжав галочку в соответсвующих местах при запуске нового торрента. По возможности, желательно не удалять старые серии как можно дольше, чтобы релизёр не столько продолжал раздавать старые серии, а смог сконцентрироваться на новых.
pb.wtf



Скачать Здесь и сейчас через торрент http://i103.fastpic.ru/big/2018/0212/e6/7c3cc8fb5b2744ac4ce0064917f6bce6.jpg Скачать фильм Здесь и сейчас через торрент бесплантно в хорошем качестве Описание: История о многонациональной семье, которая живет в США: профессоре философии Грег Бишоп, его супруге-юристе Одри, их общем ... 7 10 3
Торрент: Зарегистрирован [2018-02-28 06:26] · скачан: 17 раз
Статус: √ проверено
Размер: 2.1 GB
Как cкачать? Как скачать Здесь и сейчас через торрент | qTorrent

% Раздел Тема Автор DL S | L
Зарубежные сериалы [ 4.44 GB ] Здесь и сейчас / Here and Now / Сезон: 1 / Серии: 1-3 из 10 [2018 WEB-DL 720p] MVO [Амедиа] bober100 Скачать
1 | 0


Последний раз редактировалось: bober100 (2018-02-28 06:26), всего редактировалось 3 раз(а)

28-11-2019 20:33  

Отключить всю рекламу на сайте

12-02-2018 10:12 Здесь и сейчас Скачать торрент  

Соси Бэйкон???...За что Вы её так?... pb.wtf



    Дорогой пользователь! Огромная просьба, поблагодарите релизера, оцените раздачу и оставьте свои комментарий, если Вы скачали Здесь и сейчас через торрент бесплатно! Внесите свою лепту в развитие PiratBit!
    Комментировать посты могут только пользователи прошедшие не сложную регистрацию
    Показать сообщения:    

    Здесь и сейчас через торрент
    Скачать бесплатно Здесь и сейчас
    Здесь и сейчас скачать торрент
    Здесь и сейчас смотреть онлайн
    Cкачать фильм Здесь и сейчас бесплатно
    Здесь и сейчас скачать торрент в хорошем качестве
    Здесь и сейчас смотреть онлайн бесплатно в хорошем качестве


    Вы не можете начинать темы
    Вы не можете отвечать на сообщения
    Вы не можете редактировать свои сообщения
    Вы не можете удалять свои сообщения
    Вы не можете голосовать в опросах
    Вы не можете прикреплять файлы к сообщениям
    Вы можете скачивать файлы