Ссылка на приватное зеркало всего за 1$. Внимание количество ограничено!!!

OK

1+1

iTunes

мы

OK

1

WEB-DLRip

Джокер

Пифагор

Ведьмак / The Witcher сериал

iTunes

ПШазам

ОК

Оно 2

iTunes

30
pack

Вам бонус

ВАЖНО

!!Акция!!

Alien_RageХит недели

RePack

Resident Evil 21

ИГРА 18+

pack

RePack

jed

RePack

fifa19

RePack

Assassins Creed: Odyssey

RePack

NEED FOR SPEED™ PAYBACK

4 сезон

9 сезон

Бесстыжие 9 сезон

Все сериалы

все сериалы на PB.wtf

RePack

FAR CRY 5
  

Смерть Людовика XIV / La mort de Louis XIV (Альберт Серра) [2016, драма, биография, история, BDRip 720p] MVO [официальный звук] pb.wtf

Смерть Людовика XIV через торрент pb.wtf

Размер: 5.31 GB | Добавлен: 1 год 11 мес. назад | Торрент скачан:24 раза
Скачать  

12-02-2018 16:59 Смерть Людовика XIV Скачать торрент  

Смерть Людовика XIV / La mort de Louis XIVГод выпуска: 2016
Страна: Франция, Испания, Португалия
Жанр: драма, биография, история
Продолжительность: 01:57:05
Перевод: Профессиональный многоголосый - [официальный звук]
Субтитры: отсутствуют

Режиссер: Альберт Серра

rating

В ролях:

Жан-Пьер Лео, Патрик д Асумсао, Марк Сузини, Бернард Белин, Ирен Сильваньи, Виченс Алтай, Жак Хенрик, Ален Лажоини, Оливье Кадиот, Филипп Креспо

Описание:

Король-Солнце Людовик XIV очень любил обильно поесть и всю жизнь страдал от различных болезней. Их история велась в течение 64 лет. Врачи скорее залечивали, чем лечили короля - они поддерживали его жизнь, чтобы получить за свою работу больше денег. Один историк медицины, оценивая лечебную практику королевских врачей Валло, д`Акена и Фагона, писал: «Несомненно, нужно было иметь железное здоровье, чтобы выдержать это лечение коновалов».

Качество: BDRip 720p
Формат: MKV
Видео кодек: H.264
Аудио кодек: AC3

Видео: 6037 Kбит/с, 1280x536
Аудио#1: Русский, (AC3, 2 ch, 448 Кбит/с)

скриншот  скриншот  скриншот  

Общее
Уникальный идентификатор : 193321057743188685800853273664207992901 (0x91704809C0D20D0F9F3A16CA11F03845)
Полное имя : D:\La.mort.de.Louis.XIV.2016.P.BDRip.72Op_KOSHARA.mkv
Формат : Matroska
Версия формата : Version 2
Размер файла : 5,31 Гбайт
Продолжительность : 1 ч. 57 м.
Режим общего битрейта : Переменный
Общий поток : 6487 Кбит/сек
Дата кодирования : UTC 2018-02-12 13:47:26
Программа кодирования : mkvmerge v8.3.0 ('Over the Horizon') 64bit
Библиотека кодирования : libebml v1.3.1 + libmatroska v1.4.2

Видео
Идентификатор : 1
Формат : AVC
Формат/Информация : Advanced Video Codec
Профиль формата : High@L4.1
Параметр CABAC формата : Да
Параметр ReFrames формата : 4 кадра
Идентификатор кодека : V_MPEG4/ISO/AVC
Продолжительность : 1 ч. 57 м.
Вид битрейта : Переменный
Битрейт : 6037 Кбит/сек
Максимальный битрейт : 6500 Кбит/сек
Ширина : 1280 пикселей
Высота : 536 пикселей
Соотношение сторон : 2,40:1
Режим частоты кадров : Постоянный
Частота кадров : 23,976 (24000/1001) кадра/сек
Стандарт вещания : Component
Цветовое пространство : YUV
Субдискретизация насыщенности : 4:2:0
Битовая глубина : 8 бит
Тип развёртки : Прогрессивная
Бит/(Пиксели*Кадры) : 0.359
Размер потока : 4,83 Гбайт (91%)
Default : Да
Forced : Нет
Цветовой диапазон : Limited
Основные цвета : BT.709
Характеристики трансфера : BT.709
Коэффициенты матрицы : BT.709

Аудио
Идентификатор : 2
Формат : AC-3
Формат/Информация : Audio Coding 3
Расширение режима : CM (complete main)
Параметр Endianness формата : Big
Идентификатор кодека : A_AC3
Продолжительность : 1 ч. 57 м.
Вид битрейта : Постоянный
Битрейт : 448 Кбит/сек
Каналы : 2 канала
Расположение каналов : Front: L R
Частота : 48,0 КГц
Частота кадров : 31,250 кадров/сек (1536 spf)
Метод сжатия : С потерями
Размер потока : 375 Мбайт (7%)
Default : Да
Forced : Нет

pb.wtf



Скачать Смерть Людовика XIV через торрент http://img12.lostpic.net/2018/02/12/92e05e379687f5851175490a380193ae.jpg Скачать фильм Смерть Людовика XIV через торрент бесплантно в хорошем качестве Описание: Король-Солнце Людовик XIV очень любил обильно поесть и всю жизнь страдал от различных болезней. Их история велась в течение 64 ... 10 10 3
Торрент: Зарегистрирован [2018-02-12 16:59] · скачан: 24 раз
Статус: # сомнительно
Размер: 5.31 GB
Как cкачать? Как скачать Смерть Людовика XIV через торрент | qTorrent

% Раздел Тема Автор DL S | L
T Фильмы (мультфильмы) cо спонсором показа (Новинки AVI/MKV) [ 1.45 GB ] Смерть Людовика XIV / La mort de Louis XIV [2016 биография история HDRip] MVO [официальный звук] bober100 Скачать
1 | 0

28-11-2019 20:33  

Отключить всю рекламу на сайте

    Дорогой пользователь! Огромная просьба, поблагодарите релизера, оцените раздачу и оставьте свои комментарий, если Вы скачали Смерть Людовика XIV через торрент бесплатно! Внесите свою лепту в развитие PiratBit!
    Комментировать посты могут только пользователи прошедшие не сложную регистрацию
    Показать сообщения:    

    Смерть Людовика XIV через торрент
    Скачать бесплатно Смерть Людовика XIV
    Смерть Людовика XIV скачать торрент
    Смерть Людовика XIV смотреть онлайн
    Cкачать фильм Смерть Людовика XIV бесплатно
    Смерть Людовика XIV скачать торрент в хорошем качестве
    Смерть Людовика XIV смотреть онлайн бесплатно в хорошем качестве


    Вы не можете начинать темы
    Вы не можете отвечать на сообщения
    Вы не можете редактировать свои сообщения
    Вы не можете удалять свои сообщения
    Вы не можете голосовать в опросах
    Вы не можете прикреплять файлы к сообщениям
    Вы можете скачивать файлы