Ссылка на приватное зеркало всего за 1$. Внимание количество ограничено!!!

OK

1+1

iTunes

мы

OK

1

WEB-DLRip

Джокер

Пифагор

Ведьмак / The Witcher сериал

Лицензия

ПШазам

ОК

Оно 2

iTunes

30
pack

Вам бонус

ВАЖНО

!!Акция!!

Alien_RageХит недели

RePack

Resident Evil 21

ИГРА 18+

pack

RePack

jed

RePack

fifa19

RePack

Assassins Creed: Odyssey

RePack

NEED FOR SPEED™ PAYBACK

4 сезон

9 сезон

Бесстыжие 9 сезон

Все сериалы

все сериалы на PB.wtf

RePack

FAR CRY 5
  

Это мы / It's Us (Колин Томпсон) [2016, драма, мелодрама, комедия, WEB-DL 720p] MVO ["Синема УС] pb.wtf

Это мы через торрент pb.wtf

Размер: 2.98 GB | Добавлен: 1 год 11 мес. назад | Торрент скачан:15 раз
Скачать  

12-02-2018 17:26 Это мы Скачать торрент  

Это мы / It's UsГод выпуска: 2016
Страна: США
Жанр: драма, мелодрама, комедия
Продолжительность: 01:30:14
Перевод: Любительский (многоголосый) ["Синема УС]
Субтитры: отсутствуют

Режиссер: Колин Томпсон

rating

В ролях:

Элиза Куп, Джон Дэйл, Эндрю Фридман, Аннабель Гурвич, Джей Хейден, Никки Даниэль Мур, Джефф Мичам, Колин Томпсон, Бриана Венскус, Дэвид Уолтон

Описание:

Молодая супружеская пара, задавленная большим городом, решает бросить все в Лос-Анджелесе и переехать в Вермонт. Там они сталкиваются с еще большими трудностями в отношениях между собой. Кому придется пожертвовать собой и кто сделает решительный шаг?

Качество: WEB-DL 720p
Формат: MKV
Видео кодек: H.264
Аудио кодек: AC3

Видео: 4337 Кбит/с, 1280x720
Аудио#1: AC3, 2 ch, 384 Кбит/с

скриншот  скриншот  скриншот  

Общее
Уникальный идентификатор : 179441126818842190624518942050673310975 (0x86FF1A9BC76F67CFB58AE3B545E53CFF)
Полное имя : D:\Its.Us.2016.P.WEB-DL.72Op_KOSHARA.mkv
Формат : Matroska
Версия формата : Version 2
Размер файла : 2,98 Гбайт
Продолжительность : 1 ч. 30 м.
Режим общего битрейта : Переменный
Общий поток : 4723 Кбит/сек
Дата кодирования : UTC 2018-02-12 06:18:19
Программа кодирования : mkvmerge v8.3.0 ('Over the Horizon') 64bit
Библиотека кодирования : libebml v1.3.1 + libmatroska v1.4.2

Видео
Идентификатор : 1
Формат : AVC
Формат/Информация : Advanced Video Codec
Профиль формата : High@L4.1
Параметр CABAC формата : Да
Параметр ReFrames формата : 4 кадра
Идентификатор кодека : V_MPEG4/ISO/AVC
Продолжительность : 1 ч. 30 м.
Вид битрейта : Переменный
Битрейт : 4337 Кбит/сек
Максимальный битрейт : 4900 Кбит/сек
Ширина : 1280 пикселей
Высота : 720 пикселей
Соотношение сторон : 16:9
Режим частоты кадров : Постоянный
Частота кадров : 23,976 (24000/1001) кадра/сек
Стандарт вещания : Component
Цветовое пространство : YUV
Субдискретизация насыщенности : 4:2:0
Битовая глубина : 8 бит
Тип развёртки : Прогрессивная
Бит/(Пиксели*Кадры) : 0.192
Размер потока : 2,68 Гбайт (90%)
Default : Да
Forced : Нет
Цветовой диапазон : Limited
Основные цвета : BT.709
Характеристики трансфера : BT.709
Коэффициенты матрицы : BT.709

Аудио
Идентификатор : 2
Формат : AC-3
Формат/Информация : Audio Coding 3
Расширение режима : CM (complete main)
Параметр Endianness формата : Big
Идентификатор кодека : A_AC3
Продолжительность : 1 ч. 30 м.
Вид битрейта : Постоянный
Битрейт : 384 Кбит/сек
Каналы : 2 канала
Расположение каналов : Front: L R
Частота : 48,0 КГц
Частота кадров : 31,250 кадров/сек (1536 spf)
Метод сжатия : С потерями
Размер потока : 248 Мбайт (8%)
Default : Да
Forced : Нет

pb.wtf



Скачать Это мы через торрент http://img12.lostpic.net/2018/02/12/82623d5225e7201409d8b65e0f3e06ca.jpg Скачать фильм Это мы через торрент бесплантно в хорошем качестве Описание: Молодая супружеская пара, задавленная большим городом, решает бросить все в Лос-Анджелесе и переехать в Вермонт. Там они ... 7.8 10 4
Торрент: Зарегистрирован [2018-02-12 17:26] · скачан: 15 раз
Статус: T временная
Размер: 2.98 GB
Как cкачать? Как скачать Это мы через торрент | qTorrent

28-11-2019 20:33  

Отключить всю рекламу на сайте

    Дорогой пользователь! Огромная просьба, поблагодарите релизера, оцените раздачу и оставьте свои комментарий, если Вы скачали Это мы через торрент бесплатно! Внесите свою лепту в развитие PiratBit!
    Комментировать посты могут только пользователи прошедшие не сложную регистрацию
    Показать сообщения:    

    Это мы через торрент
    Скачать бесплатно Это мы
    Это мы скачать торрент
    Это мы смотреть онлайн
    Cкачать фильм Это мы бесплатно
    Это мы скачать торрент в хорошем качестве
    Это мы смотреть онлайн бесплатно в хорошем качестве


    Вы не можете начинать темы
    Вы не можете отвечать на сообщения
    Вы не можете редактировать свои сообщения
    Вы не можете удалять свои сообщения
    Вы не можете голосовать в опросах
    Вы не можете прикреплять файлы к сообщениям
    Вы можете скачивать файлы