Ссылка на приватное зеркало всего за 1$. Внимание количество ограничено!!!

OK

1+1

iTunes

мы

OK

1

WEB-DLRip

Джокер

Пифагор

Ведьмак / The Witcher сериал

iTunes

ПШазам

ОК

Оно 2

iTunes

30
pack

Вам бонус

ВАЖНО

!!Акция!!

Alien_RageХит недели

RePack

Resident Evil 21

ИГРА 18+

pack

RePack

jed

RePack

fifa19

RePack

Assassins Creed: Odyssey

RePack

NEED FOR SPEED™ PAYBACK

4 сезон

9 сезон

Бесстыжие 9 сезон

Все сериалы

все сериалы на PB.wtf

RePack

FAR CRY 5
  

Осколки неба / Calico Skies (Валерио Эспозито) [2017, триллер, драма, WEB-DL 720p] MVO ["Синема УС] pb.wtf

Осколки неба через торрент pb.wtf

Размер: 2.77 GB | Добавлен: 1 год 11 мес. назад | Торрент скачан:45 раз
Скачать  

12-02-2018 17:37 Осколки неба Скачать торрент  

Осколки неба / Calico SkiesГод выпуска: 2017
Страна: США, Италия
Жанр: триллер, драма
Продолжительность: 01:19:39
Перевод: Любительский (многоголосый) ["Синема УС]
Субтитры: отсутствуют

Режиссер: Валерио Эспозито

rating

В ролях:

Том Сайзмор, Кристина Беннетт Линд, Винсент Пасторе, Кайова Гордон, Шарлотта Де Брёйне, Роберт ЛаСардо, Малкольм Баррет, Марко Хэнлиэн, Джонни Синклер Серафини, Шон Фуллер

Описание:

Феникс ведёт жизнь в вынужденной изоляции, один в доме, как можно дальше от остального мира. Он делает только одну вещь: роет ямы. Каждый месяц Феникс роет яму в пустыне и что-то туда закапывает. Его последняя связь с миром - это человек, который доставляет почту. Но благодаря новой, красивой и остроумной почтальонше Ариэль, спокойная и безопасная жизнь героя кончается.

Качество: WEB-DL 720p
Формат: MKV
Видео кодек: H.264
Аудио кодек: AC3

Видео: 4588 Кбит/с, 1280x530
Аудио#1: AC3, 2 ch, 384 Кбит/с

скриншот  скриншот  скриншот  

Общее
Уникальный идентификатор : 220860090865308890858928407008909861426 (0xA6281B3350B38F788722DCAC8E762232)
Полное имя : D:\Calico.Skies.2016.P.WEB-DL.720p_KOSHARA.mkv
Формат : Matroska
Версия формата : Version 2
Размер файла : 2,77 Гбайт
Продолжительность : 1 ч. 19 м.
Режим общего битрейта : Переменный
Общий поток : 4973 Кбит/сек
Дата кодирования : UTC 2018-02-12 06:03:34
Программа кодирования : mkvmerge v8.3.0 ('Over the Horizon') 64bit
Библиотека кодирования : libebml v1.3.1 + libmatroska v1.4.2

Видео
Идентификатор : 1
Формат : AVC
Формат/Информация : Advanced Video Codec
Профиль формата : High@L4.1
Параметр CABAC формата : Да
Параметр ReFrames формата : 4 кадра
Идентификатор кодека : V_MPEG4/ISO/AVC
Продолжительность : 1 ч. 19 м.
Вид битрейта : Переменный
Битрейт : 4588 Кбит/сек
Максимальный битрейт : 5000 Кбит/сек
Ширина : 1280 пикселей
Высота : 530 пикселей
Соотношение сторон : 2,40:1
Режим частоты кадров : Постоянный
Частота кадров : 23,976 (24000/1001) кадра/сек
Стандарт вещания : Component
Цветовое пространство : YUV
Субдискретизация насыщенности : 4:2:0
Битовая глубина : 8 бит
Тип развёртки : Прогрессивная
Бит/(Пиксели*Кадры) : 0.276
Размер потока : 2,50 Гбайт (90%)
Default : Да
Forced : Нет
Цветовой диапазон : Limited
Основные цвета : BT.709
Характеристики трансфера : BT.709
Коэффициенты матрицы : BT.709

Аудио
Идентификатор : 2
Формат : AC-3
Формат/Информация : Audio Coding 3
Расширение режима : CM (complete main)
Параметр Endianness формата : Big
Идентификатор кодека : A_AC3
Продолжительность : 1 ч. 19 м.
Вид битрейта : Постоянный
Битрейт : 384 Кбит/сек
Каналы : 2 канала
Расположение каналов : Front: L R
Частота : 48,0 КГц
Частота кадров : 31,250 кадров/сек (1536 spf)
Метод сжатия : С потерями
Размер потока : 219 Мбайт (8%)
Default : Да
Forced : Нет

pb.wtf



Скачать Осколки неба через торрент http://img12.lostpic.net/2018/02/12/c740c229dc472ba69547867aa2ca194b.jpg Скачать фильм Осколки неба через торрент бесплантно в хорошем качестве Описание: Феникс ведёт жизнь в вынужденной изоляции, один в доме, как можно дальше от остального мира. Он делает только одну вещь: роет ... 7 10 3
Торрент: Зарегистрирован [2018-02-12 17:37] · скачан: 45 раз
Статус: T временная
Размер: 2.77 GB
Как cкачать? Как скачать Осколки неба через торрент | qTorrent

% Раздел Тема Автор DL S | L
T Фильмы (мультфильмы) cо спонсором показа (Новинки AVI/MKV) [ 1.36 GB ] Осколки неба / Calico Skies [2017 WEB-DLRip] MVO ["Синема УС] bober100 Скачать
1 | 0

28-11-2019 20:33  

Отключить всю рекламу на сайте

    Дорогой пользователь! Огромная просьба, поблагодарите релизера, оцените раздачу и оставьте свои комментарий, если Вы скачали Осколки неба через торрент бесплатно! Внесите свою лепту в развитие PiratBit!
    Комментировать посты могут только пользователи прошедшие не сложную регистрацию
    Показать сообщения:    

    Осколки неба через торрент
    Скачать бесплатно Осколки неба
    Осколки неба скачать торрент
    Осколки неба смотреть онлайн
    Cкачать фильм Осколки неба бесплатно
    Осколки неба скачать торрент в хорошем качестве
    Осколки неба смотреть онлайн бесплатно в хорошем качестве


    Вы не можете начинать темы
    Вы не можете отвечать на сообщения
    Вы не можете редактировать свои сообщения
    Вы не можете удалять свои сообщения
    Вы не можете голосовать в опросах
    Вы не можете прикреплять файлы к сообщениям
    Вы можете скачивать файлы