Ссылка на приватное зеркало нашего сайта всего за 1$. Внимание количество ограничено!!!

2 сезон

iTunes

1 сезон

1

2 сезон

2 сезон

iTunes

1 сезон

RePack

30

Новинка

ВАЖНО

ИГРА 18+

pack

RePack

MK11
pack

Забери бонус

RePack

jed

!!Акция!!

Alien_Rage

RePack

fifa19

RePack

Assassins Creed: Odyssey

RePack

NEED FOR SPEED™ PAYBACK

4 сезон

9 сезон

Бесстыжие 9 сезон

Все сериалы

все сериалы на PB.wtf

RePack

FAR CRY 5
  

День мертвецов: Злая кровь / Day of the Dead: Bloodline (Гектор Эрнандес) [2018, ужасы, WEB-DL 1080p] Дубляж - [Лицензия / iTunes] pb.wtf

День мертвецов: Злая кровь через торрент pb.wtf

Размер: 3.07 GB | Добавлен: 2 года 9 мес. назад | Торрент скачан:189 раз
Скачать  

12-02-2018 18:42 День мертвецов: Злая кровь Скачать торрент  

День мертвецов: Злая кровь / Day of the Dead: Bloodline
««Every day has its end»»

Год выпуска: 2018
Страна: США
Жанр: ужасы

Продолжительность: 01:29:59
Перевод: Дубляж - [Лицензия / iTunes]
Режиссер: Гектор Эрнандес
В ролях:

Софи Скелтон (Zoe Parker), Джонатон Шек (Max), Джефф Гам (Miguel Salazar), Маркус Ванко (Baca Salazar), Марк Смит (Alphonse), Лиллиэн Бланкеншип (Lily), Шари Уотсон (Elyse), Рэйчел О’Мира (Dr. Beeman), Люк Казинс (Peter), Лорина Камбурова (Abby), Кристина Серафини (Elle), Дэбби Шерман (Linda)
Описание:
Чудовищный вирус, превращающий людей в зомби, поставил под угрозу само существование человеческой расы. Группе военных удалось укрыться в катакомбах, где молодая и обаятельная Зои проводит опыты по поиску вакцины. Для нахождения нужной формулы не хватает лишь одного «элемента». На его поиски отправляется группа спецназевцев. Дерзкая вылазка в «мёртвую зону» оборачивается провалом и запускает обратный отсчет времени.
Рейтинг:

MPAA: R - Лицам до 17 лет обязательно присутствие взрослого
Качество: WEB-DL 1080p
Формат: MKV
Видео: AVC, 1920x806 (2.40:1), 4405 kbps, 24 fps, 0,119 bpp
Аудио: русский / AC3 / 5.1 / 48 kHz / 384 kbps / |DUB|
Навигация по главам: есть
General
Unique ID : 185086240949598666823397764152398520563 (0x8B3E503945724CC3A6D63D1E0CD520F3)
Complete name : E:\День мертвецов_ Злая кровь (1080p HD.mkv
Format : Matroska
Format version : Version 4 / Version 2
File size : 3.07 GiB
Duration : 1 h 29 min
Overall bit rate : 4 887 kb/s
Encoded date : UTC 2018-02-12 15:46:06
Writing application : mkvmerge v9.5.0 ('Quiet Fire') 64bit
Writing library : libebml v1.3.4 + libmatroska v1.4.5

Video
ID : 1
Format : AVC
Format/Info : Advanced Video Codec
Format profile : High@L4
Format settings, CABAC : Yes
Format settings, ReFrames : 5 frames
Codec ID : V_MPEG4/ISO/AVC
Duration : 1 h 29 min
Bit rate : 4 406 kb/s
Width : 1 920 pixels
Height : 806 pixels
Display aspect ratio : 2.40:1
Frame rate mode : Constant
Frame rate : 24.000 FPS
Color space : YUV
Chroma subsampling : 4:2:0
Bit depth : 8 bits
Scan type : Progressive
Bits/(Pixel*Frame) : 0.119
Stream size : 2.77 GiB (90%)
Language : English
Default : Yes
Forced : No
Color range : Limited
Color primaries : BT.709
Transfer characteristics : BT.709
Matrix coefficients : BT.709

Audio
ID : 2
Format : AC-3
Format/Info : Audio Coding 3
Mode extension : CM (complete main)
Format settings, Endianness : Big
Codec ID : A_AC3
Duration : 1 h 29 min
Bit rate mode : Constant
Bit rate : 384 kb/s
Channel(s) : 6 channels
Channel positions : Front: L C R, Side: L R, LFE
Sampling rate : 48.0 kHz
Frame rate : 31.250 FPS (1536 spf)
Compression mode : Lossy
Stream size : 247 MiB (8%)
Language : Russian
Default : Yes
Forced : No

Menu
00:00:00.000 : en:Глава 1
00:11:56.083 : en:Глава 2
00:18:41.999 : en:Глава 3
00:25:40.749 : en:Глава 4
00:32:36.540 : en:Глава 5
00:38:33.206 : en:Глава 6
00:44:01.789 : en:Глава 7
00:48:57.997 : en:Глава 8
00:55:13.413 : en:Глава 9
01:02:12.413 : en:Глава 10
01:08:40.996 : en:Глава 11
01:13:48.704 : en:Глава 12
01:19:30.370 : en:Глава 13
pb.wtf



Скачать День мертвецов: Злая кровь через торрент http://i4.imageban.ru/out/2018/02/12/4e50e23f343477897dc5f629ac1b9314.jpg Скачать фильм День мертвецов: Злая кровь через торрент бесплантно в хорошем качестве Описание: Чудовищный вирус, превращающий людей в зомби, поставил под угрозу само существование человеческой расы. Группе военных удалось ... 10 10 6
Торрент: Зарегистрирован [2018-02-12 18:42] · скачан: 189 раз
Статус: √ проверено
Размер: 3.07 GB
Как cкачать? Как скачать День мертвецов: Злая кровь через торрент | qTorrent

% Раздел Тема Автор DL S | L
Фильмы 2018 [DVDrip, WEB-DLRip, HDrip] (DUB, MVO) [ 2.14 GB ] День мертвецов: Злая кровь / Day of the Dead: Bloodline [2018 BDRip-AVC] Dub sokol_ok Скачать
2 | 0
Фильмы 2018 [DVDrip, WEB-DLRip, HDrip] (DUB, MVO) [ 1.41 GB ] День мертвецов: Злая кровь / Day of the Dead: Bloodline [2018 BDRip-AVC] Dub sokol_ok Скачать
2 | 0
Фильмы 2018 [DVDrip, WEB-DLRip, HDrip] (DUB, MVO) [ 745 MB ] День мертвецов: Злая кровь / Day of the Dead: Bloodline [2018 BDRip-AVC] Dub sokol_ok Скачать
2 | 0
Фильмы 2018 [DVDrip, WEB-DLRip, HDrip] (DUB, MVO) [ 1.58 GB ] День мертвецов: Злая кровь / Day of the Dead: Bloodline [2018 HDRip-AVC] bober100 Скачать
1 | 0
# Фильмы [HD 720p, 1080p] (Хороший звук DUB, MVO) [ 6.8 GB ] День мертвецов: Злая кровь / Day of the Dead: Bloodline [2018 BDRip 1080p] bober100 Скачать
1 | 0
# Фильмы [HD 720p, 1080p] (Хороший звук DUB, MVO) [ 4.61 GB ] День мертвецов: Злая кровь / Day of the Dead: Bloodline [2018 BDRip 720p] bober100 Скачать
1 | 0
Фильмы 2018 [DVDrip, WEB-DLRip, HDrip] (DUB, MVO) [ 1.37 GB ] День мертвецов: Злая кровь / Day of the Dead: Bloodline [2018 HDRip] bober100 Скачать
1 | 0

28-11-2019 20:33  

Отключить всю рекламу на сайте

    Дорогой пользователь! Огромная просьба, поблагодарите релизера, оцените раздачу и оставьте свои комментарий, если Вы скачали День мертвецов: Злая кровь через торрент бесплатно! Внесите свою лепту в развитие PiratBit!
    Комментировать посты могут только пользователи прошедшие не сложную регистрацию
    Показать сообщения:    

    День мертвецов: Злая кровь через торрент
    Скачать бесплатно День мертвецов: Злая кровь
    День мертвецов: Злая кровь скачать торрент
    День мертвецов: Злая кровь смотреть онлайн
    Cкачать фильм День мертвецов: Злая кровь бесплатно
    День мертвецов: Злая кровь скачать торрент в хорошем качестве
    День мертвецов: Злая кровь смотреть онлайн бесплатно в хорошем качестве


    Вы не можете начинать темы
    Вы не можете отвечать на сообщения
    Вы не можете редактировать свои сообщения
    Вы не можете удалять свои сообщения
    Вы не можете голосовать в опросах
    Вы не можете прикреплять файлы к сообщениям
    Вы можете скачивать файлы