Ссылка на приватное зеркало всего за 1$. Внимание количество ограничено!!!

OK

1+1

iTunes

мы

OK

1

WEB-DLRip

Джокер

Пифагор

Ведьмак / The Witcher сериал

Лицензия

ПШазам

ОК

Оно 2

iTunes

30
pack

Вам бонус

ВАЖНО

!!Акция!!

Alien_RageХит недели

RePack

Resident Evil 21

ИГРА 18+

pack

RePack

jed

!!Акция!!

Alien_Rage

RePack

fifa19

RePack

Assassins Creed: Odyssey

RePack

NEED FOR SPEED™ PAYBACK

4 сезон

9 сезон

Бесстыжие 9 сезон

Все сериалы

все сериалы на PB.wtf

RePack

FAR CRY 5
  

Обещание / The Promise (Сопон Сукдаписит) [2017, ужасы, триллер, драма, BDRip 720p] MVO ["Синема УС] pb.wtf

Обещание через торрент pb.wtf

Размер: 4.96 GB | Добавлен: 1 год 11 мес. назад | Торрент скачан:58 раз
Скачать  

12-02-2018 18:46 Обещание Скачать торрент  

Обещание / The PromiseГод выпуска: 2017
Страна: Таиланд
Жанр: ужасы, триллер, драма
Продолжительность: 01:54:15
Перевод: Любительский (многоголосый) ["Синема УС]
Субтитры: отсутствуют

Режиссер: Сопон Сукдаписит

rating

В ролях:

Панисара Рикулсуракан, Дуентм Салитул, Бенджамин Джозеф Варни, Сухада Пунпаттанасук, Сурачай Нингсанонд, Терапоп Сонгваджа, Дуанджай Хирансри

Описание:

Две подруги решают покончить с собой, дают друг другу обещание умереть вместе, но одна из них в последний момент предумывает. Много лет спустя у неё уже почти взрослая дочь, за которой приходит призрак мертвой подруги забрать должок.

Качество: BDRip 720p
Формат: MKV

Видео: 5768 Кбит/с, 1280x536
Аудио: AC3, 2 ch, 448 Кбит/с

скриншот  скриншот  скриншот  

Общее
Уникальный идентификатор : 198155837675212930819777348295935592785 (0x95136D17BB94F396A73C556DA82B0951)
Полное имя : D:\The.Promise.2017.P.BDRip.72Op.mkv
Формат : Matroska
Версия формата : Version 2
Размер файла : 4,96 Гбайт
Продолжительность : 1 ч. 54 м.
Режим общего битрейта : Переменный
Общий поток : 6218 Кбит/сек
Дата кодирования : UTC 2018-02-11 17:27:16
Программа кодирования : mkvmerge v8.3.0 ('Over the Horizon') 64bit
Библиотека кодирования : libebml v1.3.1 + libmatroska v1.4.2

Видео
Идентификатор : 1
Формат : AVC
Формат/Информация : Advanced Video Codec
Профиль формата : High@L4.1
Параметр CABAC формата : Да
Параметр ReFrames формата : 4 кадра
Идентификатор кодека : V_MPEG4/ISO/AVC
Продолжительность : 1 ч. 54 м.
Вид битрейта : Переменный
Битрейт : 5768 Кбит/сек
Максимальный битрейт : 6500 Кбит/сек
Ширина : 1280 пикселей
Высота : 536 пикселей
Соотношение сторон : 2,40:1
Режим частоты кадров : Постоянный
Частота кадров : 23,976 (24000/1001) кадра/сек
Стандарт вещания : Component
Цветовое пространство : YUV
Субдискретизация насыщенности : 4:2:0
Битовая глубина : 8 бит
Тип развёртки : Прогрессивная
Бит/(Пиксели*Кадры) : 0.343
Размер потока : 4,51 Гбайт (91%)
Default : Да
Forced : Нет
Цветовой диапазон : Limited
Основные цвета : BT.709
Характеристики трансфера : BT.709
Коэффициенты матрицы : BT.709

Аудио
Идентификатор : 2
Формат : AC-3
Формат/Информация : Audio Coding 3
Расширение режима : CM (complete main)
Параметр Endianness формата : Big
Идентификатор кодека : A_AC3
Продолжительность : 1 ч. 54 м.
Вид битрейта : Постоянный
Битрейт : 448 Кбит/сек
Каналы : 2 канала
Расположение каналов : Front: L R
Частота : 48,0 КГц
Частота кадров : 31,250 кадров/сек (1536 spf)
Метод сжатия : С потерями
Размер потока : 366 Мбайт (7%)
Default : Да
Forced : Нет

pb.wtf



Скачать Обещание через торрент http://img12.lostpic.net/2018/02/12/6613d24a944eb97f36fe88ff2b365a1e.jpg Скачать фильм Обещание через торрент бесплантно в хорошем качестве Описание: Две подруги решают покончить с собой, дают друг другу обещание умереть вместе, но одна из них в последний момент предумывает. ... 6 10 5
Торрент: Зарегистрирован [2018-02-12 18:46] · скачан: 58 раз
Статус: # сомнительно
Размер: 4.96 GB
Как cкачать? Как скачать Обещание через торрент | qTorrent

% Раздел Тема Автор DL S | L
T Фильмы (мультфильмы) cо спонсором показа (Новинки AVI/MKV) [ 1.44 GB ] Обещание / The Promise [2017 HDRip] MVO ["Синема УС] bober100 Скачать
1 | 0
Фильмы (Blu-ray, BD-Remux, HDDVD) [ 34.57 GB ] Обещание / The Promise [2016 история BD Remux 1080p] bober100 Скачать
1 | 0
Фильмы без перевода [ 34.23 GB ] Обещание / The Promise [2016 история BDRemux] [Оригинал-ENG] smaster Скачать
1 | 0
Фильмы 2016 [DVDrip, WEB-DLRip, HDrip] (DUB, MVO) [ 2.12 GB ] Обещание / The Promise [2016 история BDRip] - Twi7ter Скачать
1 | 0
Фильмы 2016 [DVDrip, WEB-DLRip, HDrip] (DUB, MVO) [ 1.46 GB ] Обещание / The Promise [2016 история BDRip] - Twi7ter Скачать
1 | 0
Фильмы 2016 [DVDrip, WEB-DLRip, HDrip] (DUB, MVO) [ 1.37 GB ] Обещание / The Promise [2016 история HDRip ] oleg8 Скачать
1 | 0

28-11-2019 20:33  

Отключить всю рекламу на сайте

    Дорогой пользователь! Огромная просьба, поблагодарите релизера, оцените раздачу и оставьте свои комментарий, если Вы скачали Обещание через торрент бесплатно! Внесите свою лепту в развитие PiratBit!
    Комментировать посты могут только пользователи прошедшие не сложную регистрацию
    Показать сообщения:    

    Обещание через торрент
    Скачать бесплатно Обещание
    Обещание скачать торрент
    Обещание смотреть онлайн
    Cкачать фильм Обещание бесплатно
    Обещание скачать торрент в хорошем качестве
    Обещание смотреть онлайн бесплатно в хорошем качестве


    Вы не можете начинать темы
    Вы не можете отвечать на сообщения
    Вы не можете редактировать свои сообщения
    Вы не можете удалять свои сообщения
    Вы не можете голосовать в опросах
    Вы не можете прикреплять файлы к сообщениям
    Вы можете скачивать файлы