Anonymous, доброе утро, присоединяйтесь к нам в Telegram!, здесь всегда актуальный адрес сайта, оперативная поддержка и многое другое!

>

5.6

iTunes

7.4

iTunes

5.7

MVO

1

7.7

1 сезон

6.8

iTunes

7.3

1 сезон

13

6.7

1 сезон

8.3

RePack

30

ULTIMATE

pack

9.9

Лицензия

ВАЖНО

ИГРА 18+

pack

7.3

RePack

MK11

7.7

RePack

jed

7.8

RePack

fifa19

8.5

RePack

RDR2

RePack

NEED FOR SPEED™ PAYBACK

4 сезон

9 сезон

Бесстыжие 9 сезон

Все сериалы

все сериалы на PB.wtf

RePack

FAR CRY 5

Anonymous, доброе утро, мы катастрофически не успеваем собрать деньги на оплату серверов, помогите нам пожалуйста 5,10,15р., для нас важна любая помощь . В качестве благодарности мы отключим Вам всю рекламу на сайте (укажите свой ник в строку Ваше имя)!

×
  
Magnet ссылка

Родина / Чужой среди своих / Homeland / Сезон: 7 / Серии: 1-12 из 12 (Лесли Линка Глаттер, Майкл Куэста, Дэниэл Эттиэс) [2018, триллер, драма, детектив, WEB-DL 1080p] MVO [Амедиа] pb.wtf

Родина через торрент pb.wtf

Размер: 53.65 GB | Добавлен: 3 года 5 мес. назад | Торрент скачан:32 раза
Смотреть онлайн Родина | Скачать    Ребята, помогите собрать деньги на оплату серверов!!!

12-02-2018 19:45 Родина Скачать торрент  


Родина / Чужой среди своих / Homeland
Год выпуска: 2018
Страна: США
Жанр: триллер, драма, детектив
Продолжительность: ~ 00:43:00
Перевод: Профессиональный многоголосый | Амедиа
Субтитры: английские, русские

Режиссер: Лесли Линка Глаттер, Майкл Куэста, Дэниэл Эттиэс

rating

В ролях:

Клэр Дэйнс, Дэмиэн Льюис, Мэнди Пэтинкин, Морена Баккарин, Дэвид Хэрвуд, Руперт Френд, Джексон Пэйс, Морган Сэйлор, Ф. Мюррэй Абрахам, Диего Клаттенхофф

Описание:

Противостояние главного террориста Америки и блондинки из ЦРУ закончено. Но это еще не конец. Броуди убит, Соул уволен из ЦРУ, а Кэрри получила новое задание и отправляется в одну из самых горячих точек Ближнего Востока. Любовь к родине и чувство долга против экстремизма и террора.

Качество: WEB-DL 1080p
Формат: MKV
Видео кодек: H.264
Аудио кодек: AC3

Видео: MPEG-4 AVC, ~ 11.2 Мбит/с, 1920x1080
Аудио#1: Русский (AC3, 2 ch, 192 Кбит/с)
Аудио#2: английский (AC3, 6 ch, 640 Кбит/с)
скриншот   скриншот   скриншот  

Общее
Уникальный идентификатор : 246406862983508693973161909319766359150 (0xB9603C4FC600AE90BF4E708BD4B3BC6E)
Полное имя : E:\Родина (сезон 7) Homeland (2018) WEB-DL 1080p - Amedia\Homeland.S07E01.WEB-DL1080p.Rus.Eng.DV.Amedia.mkv
Формат : Matroska
Версия формата : Version 4 / Version 2
Размер файла : 5,03 Гбайт
Продолжительность : 59 м. 55 с.
Режим общего битрейта : Переменный
Общий поток : 12,0 Мбит/сек
Название фильма : Homeland.S07E01.WEB-DL1080p.Rus.Eng.DV.Amedia / NNM-Club
Дата кодирования : UTC 2018-02-26 15:13:00
Программа кодирования : mkvmerge v8.2.0 ('World of Adventure') 64bit
Библиотека кодирования : libebml v1.3.1 + libmatroska v1.4.2
Обложка : Yes
Attachments : Cover

Видео
Идентификатор : 1
Формат : AVC
Формат/Информация : Advanced Video Codec
Профиль формата : High@L4
Настройки формата : CABAC / 4 Ref Frames
Параметр CABAC формата : Да
Параметр RefFrames формата : 4 кадра
Идентификатор кодека : V_MPEG4/ISO/AVC
Продолжительность : 59 м. 55 с.
Вид битрейта : Переменный
Битрейт : 10,9 Мбит/сек
Максимальный битрейт : 15,0 Мбит/сек
Ширина : 1920 пикселей
Высота : 1080 пикселей
Соотношение сторон : 16:9
Режим частоты кадров : Постоянный
Частота кадров : 23,976 (24000/1001) кадра/сек
Цветовое пространство : YUV
Субдискретизация насыщенности : 4:2:0
Битовая глубина : 8 бит
Тип развёртки : Прогрессивная
Бит/(Пиксели*Кадры) : 0.220
Размер потока : 4,58 Гбайт (91%)
Язык : English
Default : Да
Forced : Нет
Цветовой диапазон : Limited
Основные цвета : BT.709
Характеристики трансфера : BT.709
Коэффициенты матрицы : BT.709

Аудио #1
Идентификатор : 2
Формат : AC-3
Формат/Информация : Audio Coding 3
Идентификатор кодека : A_AC3
Продолжительность : 59 м. 55 с.
Вид битрейта : Постоянный
Битрейт : 192 Кбит/сек
Каналы : 2 канала
Расположение каналов : Front: L R
Частота : 48,0 КГц
Частота кадров : 31,250 кадров/сек (1536 SPF)
Битовая глубина : 16 бит
Метод сжатия : С потерями
Размер потока : 82,3 Мбайт (2%)
Заголовок : Amedia
Язык : Russian
ServiceKind/String : Complete Main
Default : Да
Forced : Нет

Аудио #2
Идентификатор : 3
Формат : AC-3
Формат/Информация : Audio Coding 3
Идентификатор кодека : A_AC3
Продолжительность : 59 м. 55 с.
Вид битрейта : Постоянный
Битрейт : 640 Кбит/сек
Каналы : 6 каналов
Расположение каналов : Front: L C R, Side: L R, LFE
Частота : 48,0 КГц
Частота кадров : 31,250 кадров/сек (1536 SPF)
Битовая глубина : 16 бит
Метод сжатия : С потерями
Размер потока : 274 Мбайт (5%)
Язык : English
ServiceKind/String : Complete Main
Default : Нет
Forced : Нет

Текст #1
Идентификатор : 4
Формат : UTF-8
Идентификатор кодека : S_TEXT/UTF8
Идентификатор кодека/Информация : UTF-8 Plain Text
Язык : Russian
Default : Нет
Forced : Нет

Текст #2
Идентификатор : 5
Формат : UTF-8
Идентификатор кодека : S_TEXT/UTF8
Идентификатор кодека/Информация : UTF-8 Plain Text
Язык : English
Default : Нет
Forced : Нет

Когда раздача ведётся путём добавления новых серий, при каждом добавлении создётся новый торрент. Чтобы начать докачку новой серии, пользователям необходимо сделать следующее:
(1) остановить скачивание,
(2) удалить старый торрент у себя из клиента (старые серии удалять не надо),
(3) скачать новый торрент и запустить его у себя в клиенте вместо старого, при этом указать клиенту путь в старую папку, куда и должно происходить скачивание новых серий.
Ваш клиент при этом должен произвести хеширование (проверку) старой папки (если не производит сам - помогите ему сделать это), и будет докачивать только те серии, которых у вас ещё нет. Старые серии при этом не удаляются, а продолжают раздаваться!
Eсли вы уже удалили старые серии, то предотвратить повторную закачку старых серий можно, отжав галочку в соответсвующих местах при запуске нового торрента. По возможности, желательно не удалять старые серии как можно дольше, чтобы релизер не столько продолжал раздавать старые серии, а смог сконцентрироваться на новых.
pb.wtf



Скачать Родина через торрент http://img12.lostpic.net/2018/02/11/05df8fb477662a09b81794b20451d855.jpg Скачать, смотреть онлайн Родина бесплантно в хорошем качестве Описание: Противостояние главного террориста Америки и блондинки из ЦРУ закончено. Но это еще не конец. Броуди убит, Соул уволен из ЦРУ, а ... 7.8 10 8
Info! Золотая раздача, скачанное не засчитывается.
Торрент: Зарегистрирован [2018-05-01 07:32] · скачан: 32 раз
Статус: √ проверено
Размер: 53.65 GB
Как cкачать? Как скачать Родина через торрент | UTorrent

% Раздел Тема Автор DL S | L
Родина / Чужой среди своих / Homeland [ 8.06 GB ] Родина / Чужой среди своих / Homeland / Сезон: 7 / Серии: 1-12 из 12 [2018 WEB-DLRip] MVO [Lostfilm] bober100 Скачать
1 | 0
Родина / Чужой среди своих / Homeland [ 8.15 GB ] Родина / Чужой среди своих / Homeland / Сезон: 7 / Серии: 1-12 из 12 [2018 WEB-DLRip] MVO [Амедиа] bober100 Скачать
1 | 0
Родина / Чужой среди своих / Homeland [ 7.7 GB ] Родина / Чужой среди своих / Homeland / Сезон: 7 / Серии: 1-12 из 12 [2018 WEB-DLRip] DVO [SunshineStudio] bober100 Скачать
1 | 0
Родина / Чужой среди своих / Homeland [ 13.63 GB ] Родина / Чужой среди своих / Homeland / Сезон: 7 / Серии: 1-12 из 12 [2018 WEB-DL 720p] DVO [SunshineStudio] bober100 Скачать
1 | 0
Родина / Чужой среди своих / Homeland [ 16.89 GB ] Родина / Чужой среди своих / Homeland / Сезон: 7 / Серии: 1-12 из 12 [2018 WEB-DL 720p] MVO [Amedia] bober100 Скачать
1 | 0
Родина / Чужой среди своих / Homeland [ 7.16 GB ] Родина / Чужой среди своих / Homeland / Сезон: 7 / Серии: 1-12 из 12 [2018 WEB-DLRip] MVO [Hamsterstudio] bober100 Скачать
1 | 0


Последний раз редактировалось: bober100 (2018-05-01 07:32), всего редактировалось 10 раз(а)

28-11-2019 20:33  

Отключить всю рекламу на сайте

12-02-2018 21:46 Родина Скачать торрент  

как продолжение? стоит смотреть?pb.wtf



16-04-2018 19:36 Родина Скачать торрент  

раздача протухла?pb.wtf



    Дорогой пользователь! Огромная просьба, поблагодарите релизера, оцените раздачу и оставьте свои комментарий, если Вы скачали Родина через торрент бесплатно!
    Комментировать посты могут только пользователи прошедшие не сложную регистрацию
    Показать сообщения:    

    Родина через торрент
    Скачать бесплатно Родина
    Родина скачать торрент
    Родина смотреть онлайн
    Cкачать фильм Родина бесплатно
    Родина скачать торрент в хорошем качестве
    Родина смотреть онлайн бесплатно в хорошем качестве


    Вы не можете начинать темы
    Вы не можете отвечать на сообщения
    Вы не можете редактировать свои сообщения
    Вы не можете удалять свои сообщения
    Вы не можете голосовать в опросах
    Вы не можете прикреплять файлы к сообщениям
    Вы можете скачивать файлы